Я плюю на ваши могилы 2 / I Spit On Your Grave 2 (Стивен Р. Монро / Steven R. Monroe) [2013, США, ужасы, триллер, криминал, HDRip] [UNRATED] Dub (Звук с TS)

Ответить на тему
 
Автор Сообщение

user ®

Стаж: 7 лет 7 месяцев

Сообщений: 20008

Пост Пост: #1 от 07-Сен-2013 14:25

[Цитировать]

Я плюю на ваши могилы 2 / I Spit On Your Grave 2 / UNRATED
Страна: США
Жанр: ужасы, триллер, криминал
Год выпуска: 2013
Продолжительность: 01:46:11
Перевод: Профессиональный (дублированный) Звук с TS
Cубтитры: нет
Режиссер: Стивен Р. Монро / Steven R. Monroe
В ролях: Джемма Даллендер, Джо Эбсолом, Явор Бахаров, Александр Алексеев, Мэри Стокли, Майкл Диксон, Валентин Пелка, Питер Сильверлиф, Георг Златарев
Описание: Красавица Кэти только что переехала в Нью-Йорк, чтобы сделать карьеру модели. Но девичьи мечты о роскошной жизни разбиваются: ее насилуют, пытают, а вскоре похищают и увозят в непонятном направлении. Кэти оказывается одна в чужой стране, где ее почти что похоронят заживо. Чудом избежав смерти, девушка решает жестоко отомстить обидчикам…
Доп. информация: Расширенная версия. Отсутствует ~30 секунд перевода.
Сэмпл: http://multi-up.com/900991
Качество видео: HDRip
Формат видео: AVI
Видео: 720x304 (2,35:1), 23.976 fps, XviD 64 ~1450 kbps avg, 0.276 bit/pixel
Аудио: Russian: 48 kHz, AC-3, 2 ch, ~256 kbps
Аудио 2: English: 48 kHz, MP3, 128 kb/s (2 ch)

MediaInfo

Общее
Полное имя : D:\µTorrent\Ia.plyu.na.vashu.mogily.2013..avi
Формат : AVI
Формат/Информация : Audio Video Interleave
Размер файла : 1,37 Гбайт
Продолжительность : 1 ч. 46 м.
Общий поток : 1848 Кбит/сек
Программа кодирования : VirtualDubMod 1.5.10.2 (build 2540/release)
Библиотека кодирования : VirtualDubMod build 2540/release
Видео
Идентификатор : 0
Формат : MPEG-4 Visual
Профиль формата : Advanced Simple@L5
Параметр BVOP формата : 2
Параметр QPel формата : Нет
Параметр GMC формата : Без точки перехода
Параметр матрицы формата : Default (H.263)
Режим смешивания : Сжатый битовый поток
Идентификатор кодека : XVID
Идентификатор кодека/Подсказка : XviD
Продолжительность : 1 ч. 46 м.
Битрейт : 1450 Кбит/сек
Ширина : 720 пикселей
Высота : 304 пикселя
Соотношение сторон : 2,35:1
Частота кадров : 23,976 кадра/сек
Цветовое пространство : YUV
Субдискретизация насыщенности : 4:2:0
Битовая глубина : 8 бит
Тип развёртки : Прогрессивная
Метод сжатия : С потерями
Бит/(Пиксели*Кадры) : 0.276
Размер потока : 1,08 Гбайт (78%)
Библиотека кодирования : XviD 64
Аудио #1
Идентификатор : 1
Формат : AC-3
Формат/Информация : Audio Coding 3
Расширение режима : CM (complete main)
Параметр Endianness формата : Big
Идентификатор кодека : 2000
Продолжительность : 1 ч. 46 м.
Вид битрейта : Постоянный
Битрейт : 256 Кбит/сек
Каналы : 2 канала
Расположение каналов : Front: L R
Частота : 48,0 КГц
Битовая глубина : 16 бит
Метод сжатия : С потерями
Размер потока : 194 Мбайт (14%)
Выравнивание : Разделение по промежуткам
Продолжительность промежутка : 42 мс. (1,00 видеокадр)
Время предзагрузки промежутка : 500 мс.
Аудио #2
Идентификатор : 2
Формат : MPEG Audio
Версия формата : Version 1
Профиль формата : Layer 3
Идентификатор кодека : 55
Идентификатор кодека/Подсказка : MP3
Продолжительность : 1 ч. 46 м.
Вид битрейта : Постоянный
Битрейт : 128 Кбит/сек
Каналы : 2 канала
Частота : 48,0 КГц
Метод сжатия : С потерями
Размер потока : 97,2 Мбайт (7%)
Выравнивание : Соединение по промежуткам
Продолжительность промежутка : 42 мс. (1,00 видеокадр)
Время предзагрузки промежутка : 504 мс.
Библиотека кодирования : LAME3.99r
Настройки программы : -m s -V 4 -q 9 -lowpass 17 -b 128

Скриншот c названием фильма

Скриншоты



Скачать

Скачать торрент!

Как скачивать? · Что такое торрент? · Рейтинг и ограничения

Сайт не распространяет и не хранит электронные версии произведений, а лишь предоставляет доступ к создаваемому пользователями каталогу ссылок на торрент-файлы, которые содержат только списки хеш-сумм

[Профиль] [ЛС]
Показать сообщения:    
Ответить на тему

Текущее время: Сегодня 08:05

Часовой пояс: GMT + 4



Вы не можете начинать темы
Вы не можете отвечать на сообщения
Вы не можете редактировать свои сообщения
Вы не можете удалять свои сообщения
Вы не можете голосовать в опросах
Вы не можете прикреплять файлы к сообщениям
Вы не можете скачивать файлы