Всё нипочём / Я далек от сглаза / Chashme Baddoor (Дэвид Дхаван / David Dhawan) [2013, Индия, Комедия, HDRip] MVO

Ответить на тему
 
Автор Сообщение

user ®

Стаж: 12 лет

Сообщений: 15124

Пост Пост: #1 от 06-Сен-2013 22:40

[Цитировать]

Всё нипочём / Я далек от сглаза / Chashme Baddoor
Страна: Индия
Жанр: Комедия
Год выпуска: 2013
Продолжительность: 02:01:52
Перевод: Любительский (многоголосый закадровый) IndianCinemaGroup
Cубтитры: нет
Режиссер: Дэвид Дхаван / David Dhawan
В ролях: Али Зафар, Сиддхартх, Дивиенду Шарма, Таапси Панну, Риши Капур, Анупам Кхер, Бхарати Ачрекар, Варун Дхаван, Лиллет Дюбей, Аяз Кхан
Описание: Три друга, Оми, Сид и Джай живут, не тужат. И вдруг случай заставил их расшевелиться. Сначала Оми вдруг влюбился. Увидел чудо под балконом, и захотел стать чемпионом. В итоге стал он спец по псам, но дальше лучше… Джай уж там. Стучит копытом, мол, давай, я класс той детке преподам. Сниму я фильм, а в главной роли та богиня… что явилась Оми. Ремня отведал хулиган, и поделом, но дело тут совсем в другом… Как же делить будут красотку два друга верных? Что ж, посмотрим… А что же Сид? - вы удивитесь. Вы погодите, присмотритесь сначала вы к нему немножко. Он мил, умен, застенчив, робок. Сид дружбу ценит, это важно! Друзья еще ему покажут. “Ты доверяй, но проверяй”, гласит пословица. И знай, что дружба дружбой, а любовь проходит сквозь обман и боль. И крепче дружбы нет, поверь, когда любовь стучится в дверь.
Доп. информация: Роли озвучивали: Александр Нелюбин, Александр Галушко, Андрей Хомяков, Николай Ерофеев, Ирина Грачева и Марина Комчарукова
Перевод на русский язык и описание фильма: Александра
Сэмпл: http://multi-up.com/900842
Качество видео: HDRip (Исх. BDRip (720p))
Формат видео: AVI
Видео: XviD build 50, 688x288 (2.39:1), 24.000 fps, 1576 kbps avg
Аудио: MPEG Layer 3, 48 kHz, 2/0 (L,R) ch, 128.00 kbps avg

MediaInfo

General
Complete name : D:\Vse.nipochem.2013.XviD.HDRip-Dego.avi
Format : AVI
Format/Info : Audio Video Interleave
File size : 1.46 GiB
Duration : 2h 1mn
Overall bit rate : 1 714 Kbps
Writing application : VirtualDubMod 1.5.10.2 (build 2540/release)
Writing library : VirtualDubMod build 2540/release
Video
ID : 0
Format : MPEG-4 Visual
Format profile : AdvancedSimple@L5
Format settings, BVOP : Yes
Format settings, QPel : No
Format settings, GMC : No warppoints
Format settings, Matrix : Default (MPEG)
Codec ID : XVID
Codec ID/Hint : XviD
Duration : 2h 1mn
Bit rate : 1 577 Kbps
Width : 688 pixels
Height : 288 pixels
Display aspect ratio : 2.35
Frame rate : 24.000 fps
Resolution : 24 bits
Colorimetry : 4:2:0
Scan type : Progressive
Bits/(Pixel*Frame) : 0.332
Stream size : 1.34 GiB (92%)
Writing library : XviD 1.2.1 (UTC 2008-12-04)
Audio
ID : 1
Format : MPEG Audio
Format version : Version 1
Format profile : Layer 3
Codec ID : 55
Codec ID/Hint : MP3
Duration : 2h 1mn
Bit rate mode : Constant
Bit rate : 128 Kbps
Channel(s) : 2 channels
Sampling rate : 48.0 KHz
Resolution : 16 bits
Stream size : 112 MiB (7%)
Alignment : Aligned on interleaves
Interleave, duration : 42 ms (1.00 video frame)
Interleave, preload duration : 504 ms
Writing library : LAME3.98r
Encoding settings : -m s -V 4 -q 2 -lowpass 17 -b 128

Скриншот c названием фильма

Скриншоты

Скачать

Скачать торрент! Всё нипочём / Я далек от сглаза / Chashme Baddoor (Дэвид Дхаван / David Dhawan) [2013, Индия, Комедия, HDRip] MVO

Как скачивать? · Что такое торрент? · Рейтинг и ограничения

Сайт не распространяет и не хранит электронные версии произведений, а лишь предоставляет доступ к создаваемому пользователями каталогу ссылок на торрент-файлы, которые содержат только списки хеш-сумм

[Профиль] [ЛС]
Показать сообщения:    
Ответить на тему

Текущее время: Сегодня 14:11

Часовой пояс: GMT + 4



Вы не можете начинать темы
Вы не можете отвечать на сообщения
Вы не можете редактировать свои сообщения
Вы не можете удалять свои сообщения
Вы не можете голосовать в опросах
Вы не можете прикреплять файлы к сообщениям
Вы не можете скачивать файлы