Амар / Amar (Мехбуб Кхан / Mehboob Khan) [1954, Индия, Мелодрама, DVDRip] VO (Nastia)

Ответить на тему
 
Автор Сообщение

user ®

Стаж: 12 лет

Сообщений: 15125

Пост Пост: #1 от 06-Сен-2013 19:30

[Цитировать]

Амар / Amar
Страна: Индия
Жанр: Мелодрама
Год выпуска: 1954
Продолжительность: 02:17:47
Перевод: Одноголосый закадровый Nastia
Cубтитры: нет
Режиссер: Мехбуб Кхан / Mehboob Khan
В ролях: Дилип Кумар, Мадхубала, Нимми, Джаянт, Ульхас, Мукри, Хусн Бану, Амар, Сиддикуи, Мурад
Описание: Процветающий и уважаемый адвокат Амар Натх (Дилип Кумар) обручен с образованной и богатой Анджу (Мадхубала). Но он не остается равнодушным к красоте деревенской простушки Сонии (Нимми). Поступок, совершенный им в минуту слабости, меняет жизнь всех трех героев этой психологической мелодрамы…
Доп. информация: Релиз
Перевод: larisa_k (спасибо!)
Озвучка: Nastia (спасибо!)
Релиз и сведение аудио: керелис (спасибо!)
Сэмпл: http://multi-up.com/900776
Качество видео: DVDRip
Формат видео: AVI
Видео: XviD build 50, 544x416 (1.31:1), 29.970 fps, 1275 kbps avg
Аудио: AC3 Dolby Digital, 48 kHz, 2/0 (L,R) ch, 192.00 kbps avg

MediaInfo

General
Complete name : D:\Amar.1954.DVDRip.XviD.BWTorrents.avi
Format : AVI
Format/Info : Audio Video Interleave
File size : 1.42 GiB
Duration : 2h 17mn
Overall bit rate : 1 479 Kbps
Writing application : VirtualDubModRus 1.5.10.2 (build 2542/release)
Writing library : VirtualDubMod build 2542/release
Video
ID : 0
Format : MPEG-4 Visual
Format profile : AdvancedSimple@L5
Format settings, BVOP : Yes
Format settings, QPel : No
Format settings, GMC : No warppoints
Format settings, Matrix : Custom
Codec ID : XVID
Codec ID/Hint : XviD
Duration : 2h 17mn
Bit rate : 1 275 Kbps
Width : 544 pixels
Height : 416 pixels
Display aspect ratio : 4/3
Frame rate : 29.970 fps
Resolution : 24 bits
Colorimetry : 4:2:0
Scan type : Progressive
Bits/(Pixel*Frame) : 0.188
Stream size : 1.23 GiB (86%)
Writing library : XviD 1.2.1 (UTC 2008-12-04)
Audio
ID : 1
Format : AC-3
Format/Info : Audio Coding 3
Codec ID : 2000
Duration : 2h 17mn
Bit rate mode : Constant
Bit rate : 192 Kbps
Channel(s) : 2 channels
Channel positions : L R
Sampling rate : 48.0 KHz
Video delay : 9ms
Stream size : 189 MiB (13%)
Alignment : Split accross interleaves
Interleave, duration : 33 ms (1.00 video frame)
Interleave, preload duration : 500 ms

Скриншоты

Скачать

Скачать торрент! Амар / Amar (Мехбуб Кхан / Mehboob Khan) [1954, Индия, Мелодрама, DVDRip] VO (Nastia)

Как скачивать? · Что такое торрент? · Рейтинг и ограничения

Сайт не распространяет и не хранит электронные версии произведений, а лишь предоставляет доступ к создаваемому пользователями каталогу ссылок на торрент-файлы, которые содержат только списки хеш-сумм

[Профиль] [ЛС]
Показать сообщения:    
Ответить на тему

Текущее время: Сегодня 00:57

Часовой пояс: GMT + 4



Вы не можете начинать темы
Вы не можете отвечать на сообщения
Вы не можете редактировать свои сообщения
Вы не можете удалять свои сообщения
Вы не можете голосовать в опросах
Вы не можете прикреплять файлы к сообщениям
Вы не можете скачивать файлы