Удачу за хвост / Get Lucky (Саша Беннетт / Sacha Bennett) [2013, Великобритания, боевик, WEB-DLRip] VO

Ответить на тему
 
Автор Сообщение

user ®

Стаж: 7 лет 7 месяцев

Сообщений: 20008

Пост Пост: #1 от 06-Сен-2013 19:30

[Цитировать]

Удачу за хвост / Get Lucky
Страна: Великобритания
Жанр: боевик
Год выпуска: 2013
Продолжительность: 01:25:46
Перевод: Одноголосый закадровый [Артём Белоконский]
Cубтитры: нет
Оригинальная аудиодорожка: нет-Режиссер: Саша Беннетт / Sacha Bennett
В ролях: Люк Тредэвэй, Эмили Атак, Крэйг Фэйрбрасс, Джеймс Космо, Терри Стоун, Т.Дж. Рамини, Марек Оравек, Джейсон Мацца, Ричи Кэмпелл, Ребекка Фердинандо-Описание: Лаки — мелкий преступник, живет беззаботной жизнью, пока он не соглашается позаботиться о небольшом количестве фальшивых денег для друга, у которого проблемы с законом.
Доп. информация: премьера (мир) 21 марта 2013
IMDB 4.0
-Качество видео: WEB-DLRip
Формат видео: AVI
Видео: XviD, 1888 kb/s, 720x400 (16:9), 23,9 fps
Аудио: AC3, 384 kb/s (6 ch)

MediaInfo

Общее
Полное имя : E:\Удачу за хвост.avi
Формат : AVI
Формат/Информация : Audio Video Interleave
Размер файла : 1,37 Гбайт
Продолжительность : 1 ч. 25 м.
Общий поток : 2282 Кбит/сек
Программа кодирования : VirtualDubMod 1.5.10.2 (build 2540/release)
Библиотека кодирования : VirtualDubMod build 2540/release
Видео
Идентификатор : 0
Формат : MPEG-4 Visual
Профиль формата : Advanced Simple@L5
Параметр BVOP формата : 2
Параметр QPel формата : Нет
Параметр GMC формата : Без точки перехода
Параметр матрицы формата : Default (MPEG)
Идентификатор кодека : XVID
Идентификатор кодека/Подсказка : XviD
Продолжительность : 1 ч. 25 м.
Битрейт : 1889 Кбит/сек
Ширина : 720 пикселей
Высота : 400 пикселей
Соотношение сторон : 16:9
Частота кадров : 23,976 кадра/сек
Цветовое пространство : YUV
Субдискретизация насыщенности : 4:2:0
Битовая глубина : 8 бит
Тип развёртки : Прогрессивная
Метод сжатия : С потерями
Бит/(Пиксели*Кадры) : 0.274
Размер потока : 1,13 Гбайт (83%)
Библиотека кодирования : XviD 1.2.1 (UTC 2008-12-04)
Аудио
Идентификатор : 1
Формат : AC-3
Формат/Информация : Audio Coding 3
Расширение режима : CM (complete main)
Параметр Endianness формата : Big
Идентификатор кодека : 2000
Продолжительность : 1 ч. 25 м.
Вид битрейта : Постоянный
Битрейт : 384 Кбит/сек
Каналы : 6 каналов
Расположение каналов : Front: L C R, Side: L R, LFE
Частота : 48,0 КГц
Битовая глубина : 16 бит
Метод сжатия : С потерями
Размер потока : 236 Мбайт (17%)
Выравнивание : Разделение по промежуткам
Продолжительность промежутка : 42 мс. (1,00 видеокадр)
Время предзагрузки промежутка : 500 мс.

Скриншоты

Скачать

Скачать торрент!

Как скачивать? · Что такое торрент? · Рейтинг и ограничения

Сайт не распространяет и не хранит электронные версии произведений, а лишь предоставляет доступ к создаваемому пользователями каталогу ссылок на торрент-файлы, которые содержат только списки хеш-сумм

[Профиль] [ЛС]
Показать сообщения:    
Ответить на тему

Текущее время: Сегодня 14:37

Часовой пояс: GMT + 4



Вы не можете начинать темы
Вы не можете отвечать на сообщения
Вы не можете редактировать свои сообщения
Вы не можете удалять свои сообщения
Вы не можете голосовать в опросах
Вы не можете прикреплять файлы к сообщениям
Вы не можете скачивать файлы