Шевели ластами 2 / Sammy's avonturen 2 (Винсент Кестелут / Vincent Kesteloot, Бен Стассен / Ben Stassen) [ 2012 , Бельгия , мультфильм, приключения, семейный, BDRip] Dub + Ukr + Eng + Sub (rus, eng)

Ответить на тему
 
Автор Сообщение

user ®

Стаж: 12 лет

Сообщений: 15145

Пост Пост: #1 от 06-Сен-2013 16:20

[Цитировать]

Шевели ластами 2 / Sammy's avonturen 2«Расслабь панцирь»- Страна: Бельгия
Жанр: мультфильм, приключения, семейный
Год выпуска: 2012
Продолжительность: 01:32:45
Перевод: Профессиональный (полное дублирование)
Субтитры: Есть-Режиссер: Винсент Кестелут / Vincent Kesteloot, Бен Стассен / Ben Stassen-Роли озвучивали: Билли Ангер (Sammy, озвучка), Пэт Кэрролл (озвучка), Карлос МакКаллерс II (Ray, озвучка), Синда Адамс (Veterinarian), Дино Андраде (Manuel Hogfish), Крис Эндрю Кулла (Russian Snowcrab, озвучка), Изабель Фурман (Shelly, озвучка), Картер Хатингс (Ricky), Уэсли Джонни (Sammy), Силье Рейномо (Several voices (Norwegian)), Дуглас Райан Рот (Seagul #3), Майкл Сунь Ли (Japanese Fisherman)-Роли дублировали: Кирилл Туранский, Наталья Терешкова, Пётр Иващенко, Анна Денисова-Описание: Верные друзья навсегда, черепахи Сэмми и Рей, наслаждаются размеренной жизнью вблизи океана, а также присматривают за только что вылупившимися Рикки и Эллой. Внезапно, браконьер хватает больших черепах, они нужны ему для захватывающего морского шоу в Дубае. Центральная фигура шоу, морской конёк Большой Ди, посвящает новичков в свои планы на грандиозный побег.
Но, когда маленькие Рикки и Элла прибывают, чтобы спасти «дедушек», планы черепах и их новых друзей: пучеглазой рыбки Джимбо, осьминога Анабель, омара и большой семьи пингвинов, меняются. После ряда волнующих приключений и побегов, наши герои направляются на юг, чтобы встретиться с Шелли, первой и единственной любовью Сэмми.
-Доп. информация: BDRemux 1920x1080 (16/9) сделан с Blu-Ray диска из состава Combo Pack из коллекции DFCbit.
Отдельное спасибо xfiles за подготовку русских и английских субтитров.
-Рейтинг:
-Сборы в России: $2 652 777
Сборы в мире: $34 715 056
Мировая премьера: 2 августа 2012
Релиз на DVD: 26 марта 2013, «West Video»
Релиз на Blu-ray: 26 марта 2013,«West Video»-Релиз: -Семпл-Качество: BDRip [Sammys.Escape.From.Paradise.2012.BDRemux.1080p.dfcbit.mkv]
Формат: AVI
Видео: 720x400 (1.80:1), 23.976 fps, XviD build 65 ~1853 kbps avg, 0.27 bit/pixel
Аудио: Русский: 48 kHz, AC3 Dolby Digital, 3/2 (L,C,R,l,r) + LFE ch, ~384 kbps
Аудио 2: Украинский: 48 kHz, AC3 Dolby Digital, 3/2 (L,C,R,l,r) + LFE ch, ~384 kbps
Аудио 3: Английский: 48 kHz, AC3 Dolby Digital, 3/2 (L,C,R,l,r) + LFE ch, ~384 kbps
Субтитры: Русские, Английские

MI

Format : AVIFormat/Info : Audio Video InterleaveFile size : 1.46 GiBDuration : 1h 32mnOverall bit rate : 2 247 KbpsWriting application : VirtualDubMod 1.5.10.3 | www.virtualdub-fr.org || (build 2550/release)Writing library : VirtualDubMod build 2550/release
VideoID : 0Format : MPEG-4 VisualFormat profile : Advanced Simple@L5Format settings, BVOP : 2Format settings, QPel : NoFormat settings, GMC : No warppointsFormat settings, Matrix : CustomCodec ID : XVIDCodec ID/Hint : XviDDuration : 1h 32mnBit rate : 1 854 KbpsWidth : 720 pixelsHeight : 400 pixelsDisplay aspect ratio : 16:9Frame rate : 23.976 fpsColor space : YUVChroma subsampling : 4:2:0Bit depth : 8 bitsScan type : ProgressiveCompression mode : LossyBits/(Pixel*Frame) : 0.268Stream size : 1.20 GiB (82%)Writing library : XviD 65
AudioID : 1Format : AC-3Format/Info : Audio Coding 3Mode extension : CM (complete main)Format settings, Endianness : BigCodec ID : 2000Duration : 1h 32mnBit rate mode : ConstantBit rate : 384 KbpsChannel(s) : 6 channelsChannel positions : Front: L C R, Side: L R, LFESampling rate : 48.0 KHzBit depth : 16 bitsCompression mode : LossyStream size : 255 MiB (17%)Alignment : Split accross interleavesInterleave, duration : 42 ms (1.00 video frame)Interleave, preload duration : 500 ms
-
Скачать

Скачать торрент! Шевели ластами 2 / Sammy's avonturen 2 (Винсент Кестелут / Vincent Kesteloot, Бен Стассен / Ben Stassen) [ 2012 , Бельгия , мультфильм, приключения, семейный, BDRip] Dub + Ukr + Eng + Sub (rus, eng)

Как скачивать? · Что такое торрент? · Рейтинг и ограничения

Сайт не распространяет и не хранит электронные версии произведений, а лишь предоставляет доступ к создаваемому пользователями каталогу ссылок на торрент-файлы, которые содержат только списки хеш-сумм

[Профиль] [ЛС]
Показать сообщения:    
Ответить на тему

Текущее время: Сегодня 21:43

Часовой пояс: GMT + 4



Вы не можете начинать темы
Вы не можете отвечать на сообщения
Вы не можете редактировать свои сообщения
Вы не можете удалять свои сообщения
Вы не можете голосовать в опросах
Вы не можете прикреплять файлы к сообщениям
Вы не можете скачивать файлы