За канделябрами / Behind the Candelabra (Стивен Содерберг / Steven Soderbergh) [2013, США, драма, мелодрама, биография, BDRip] VO (Василий Кошкин)

Ответить на тему
 
Автор Сообщение

user ®

Стаж: 7 лет 7 месяцев

Сообщений: 20008

Пост Пост: #1 от 06-Сен-2013 13:10

[Цитировать]

За канделябрами
Behind the Candelabra
--Страна: США
Жанр: драма, мелодрама, биография
Год выпуска: 2013
Продолжительность: 01:58:34-Перевод :Одноголосый закадровый - Василий Кошкин
Cубтитры: нет
Режиссер: Стивен Содерберг / Steven Soderbergh-В ролях: Майкл Дуглас, Мэтт Дэймон, Дэн Эйкройд, Скотт Бакула, Роб Лоу, Дебби Рейнолдс, Эрик Цуккерман, Эдди Джемисон, Рэнди Лауэлл, Том Роач-Описание: Байопик о скандально известном пианисте и конферансье Владзиу Валентино Либераче. В 50-х годах он часто появлялся в вызывающих и вычурных нарядах, украшенных искусственными бриллиантами, золотом, мехами и блестками. Популярность он обрел благодаря своим пластинкам, а также частому появлению на телевидении и в кино.
Фильм снят по мотивам романа Скотта Торсона и Алекса Торлейфсона «За канделябрами: Моя жизнь с Либераче» (Behind the Candelabra: My Life With Liberace, 1988).-Качество видео: BDRip
Формат видео: AVI
Видео: XviD, 720x400 (1.80:1), 23.976 fps, 1555 kbps avg
Аудио : AC3 Dolby Digital, 48 kHz, 192 kbps, 2/0 (L,R) ch
!!!!!!!!!!!!!!!!!!!!!!!!!!!!!!!!!!!!!!! !!!!!!!!!!!!!!!!!!!!!!!!!СЭМПЛ!!!!!!!!!!!!!!!!!!!!!!!!!!

MediaInfo

Полное имя                       : Za.Kandelyabrami.2013.XviD.BDRip.RusVO[Koshkin].avi
Формат                           : AVI
Формат/Информация                : Audio Video Interleave
Размер файла                     : 1,46 Гбайт
Продолжительность                : 1 ч. 58 м.
Общий поток                      : 1757 Кбит/сек
Название фильма                  : Za.Kandelyabrami.2013.XviD.BDRip.RusVO[Koshkin]
Режиссёр                         : Rip MetionInka
Жанр                             : Biography/Drama
Программа кодирования            : VirtualDubMod 1.5.10.3 | www.virtualdub-fr.org || (build 2550/release)
Формат оригинала/Имя             : Behind the Candelabra/Soderberg
Правообладатель                  : ***
Примечание                       : RusVO[Кошкин]
Видео
Идентификатор                    : 0
Формат                           : MPEG-4 Visual
Профиль формата                  : Advanced Simple@L5
Параметр BVOP формата            : 2
Параметр QPel формата            : Нет
Параметр GMC формата             : Без точки перехода
Параметр матрицы формата         : Выборочная
Идентификатор кодека             : DX50
Идентификатор кодека/Подсказка   : DivX 5
Продолжительность                : 1 ч. 58 м.
Битрейт                          : 1556 Кбит/сек
Ширина                           : 720 пикселей
Высота                           : 400 пикселей
Соотношение сторон               : 16:9
Частота кадров                   : 23,976 кадра/сек
Цветовое пространство            : YUV
Субдискретизация насыщенности    : 4:2:0
Битовая глубина                  : 8 бит
Тип развёртки                    : Прогрессивная
Метод сжатия                     : С потерями
Бит/(Пиксели*Кадры)              : 0.225
Размер потока                    : 1,29 Гбайт (89%)
Библиотека кодирования           : XviD 73
Аудио
Идентификатор                    : 1
Формат                           : AC-3
Формат/Информация                : Audio Coding 3
Расширение режима                : CM (complete main)
Идентификатор кодека             : 2000
Продолжительность                : 1 ч. 58 м.
Вид битрейта                     : Постоянный
Битрейт                          : 192 Кбит/сек
Каналы                           : 2 канала
Расположение каналов             : Front: L R
Частота                          : 48,0 КГц
Битовая глубина                  : 16 бит
Метод сжатия                     : С потерями
Размер потока                    : 163 Мбайт (11%)
Выравнивание                     : Разделение по промежуткам
Продолжительность промежутка     : 42  мс. (1,00 видеокадр)
Время предзагрузки промежутка    : 500  мс.

Скриншот с названием

Скриншоты

!!!!!!!!!!!!!!!!!!!!!!!!!!!!!!!!!!!!!
Скачать

Скачать торрент!

Как скачивать? · Что такое торрент? · Рейтинг и ограничения

Сайт не распространяет и не хранит электронные версии произведений, а лишь предоставляет доступ к создаваемому пользователями каталогу ссылок на торрент-файлы, которые содержат только списки хеш-сумм

[Профиль] [ЛС]
Показать сообщения:    
Ответить на тему

Текущее время: Сегодня 00:01

Часовой пояс: GMT + 4



Вы не можете начинать темы
Вы не можете отвечать на сообщения
Вы не можете редактировать свои сообщения
Вы не можете удалять свои сообщения
Вы не можете голосовать в опросах
Вы не можете прикреплять файлы к сообщениям
Вы не можете скачивать файлы