Рука, качающая колыбель / The Hand That Rocks the Cradle (Кертис Хэнсон / Curtis Hanson) [1992, США, триллер, драма, BDRemux 1080p] MVO (ОРТ) + DVO (НТВ+) + MVO (Видеосервис) + AVO (Андрей Гаврилов) + Sub Rus, Eng + Original Eng

Ответить на тему
 
Автор Сообщение

user ®

Стаж: 7 лет 7 месяцев

Сообщений: 20008

Пост Пост: #1 от 06-Сен-2013 10:00

[Цитировать]

-Рука, качающая колыбель / The Hand That Rocks the Cradle-Страна: США
Жанр: триллер, драма
Год выпуска: 1992
Продолжительность: 01:50:27-Перевод: Профессиональный (многоголосый закадровый) ОРТ
Перевод 2: Профессиональный (двухголосый закадровый) НТВ+
Перевод 3: Профессиональный (многоголосый закадровый) Видеосервис
Перевод 4: Авторский (одноголосый закадровый) Андрей Гаврилов
Cубтитры: русские (SDH), английские (SDH)
Оригинальная аудиодорожка: английский-Режиссер: Кертис Хэнсон / Curtis Hanson
В ролях: Аннабелла Шиорра, Ребекка Де Морнэй, Мэтт МакКой, Эрни Хадсон, Джулианна Мур, Мадлен Зима, Джон де Ланси, Кевин Скаусен, Митчелл Лоранс, Джастин Заремби-Описание: Муж Пэйтон Фландерс, обвиненный в сексуальных домогательствах к своим пациенткам, кончает жизнь самоубийством. Потрясение с этим связанное приводит к преждевременным родам, и ребенок Пэйтон рождается мертвым. Кто-то должен заплатить за это, и Пэйтон устраивается сиделкой в дом женщины, которая первой выдвинула обвинения против ее мужа.-Сэмпл: http://yadi.sk/d/zO8fRanQ8YG_M
Тип релиза: BDRemux 1080p
Контейнер: MKV
Видео: MPEG-4 AVC Video / 28582 kbps / 1080p / 23.976 fps / 16:9 / High Profile 4.1
Аудио: Russian / AC3 / 48 kHz / 2 Ch / 192 kbps / 16 bit | ОРТ
Аудио 2: Russian / AC3 / 48 kHz / 2 Ch / 192 kbps / 16 bit | НТВ+
Аудио 3: Russian / AC3 / 48 kHz / 2 Ch / 192 kbps / 16 bit | Видеосервис
Аудио 4: Russian / AC3 / 48 kHz / 2 Ch / 192 kbps / 16 bit | Андрей Гаврилов
Аудио 5: English / DTS-HD Master Audio / 5.1 / 48 kHz / 3544 kbps / 24-bit (DTS Core: 5.1 / 48 kHz / 1509 kbps / 24-bit)
Формат субтитров: softsub (SRT)

MI

General
Complete name                    : X:\  -= Фильмы =-\Рука, качающая колыбель (1992. The Hand That Rocks the Cradle).mkv
Format                           : Matroska
File size                        : 25.4 GiB
Duration                         : 1h 50mn
Overall bit rate                 : 32.9 Mbps
Movie name                       : Release for
Encoded date                     : UTC 2013-08-31 19:18:50
Writing application              : mkvmerge v4.9.1 ('Ich will') сборка от Jul 11 2011 23:53:15
Writing library                  : libebml v1.2.1 + libmatroska v1.1.1
Video
ID                               : 1
Format                           : AVC
Format/Info                      : Advanced Video Codec
Format profile                   : High@L4.1
Format settings, CABAC           : Yes
Format settings, ReFrames        : 4 frames
Muxing mode                      : Container profile=Unknown@4.1
Codec ID                         : V_MPEG4/ISO/AVC
Duration                         : 1h 50mn
Bit rate mode                    : Variable
Maximum bit rate                 : 36.0 Mbps
Width                            : 1 920 pixels
Height                           : 1 080 pixels
Display aspect ratio             : 16:9
Frame rate                       : 23.976 fps
Standard                         : NTSC
Color space                      : YUV
Chroma subsampling               : 4:2:0
Bit depth                        : 8 bits
Scan type                        : Progressive
Title                            : THE_HAND_THAT_ROCKS_THE_CRADLE_v99
Language                         : English
Color primaries                  : BT.709-5, BT.1361, IEC 61966-2-4, SMPTE RP177
Transfer characteristics         : BT.709-5, BT.1361
Matrix coefficients              : BT.709-5, BT.1361, IEC 61966-2-4 709, SMPTE RP177
Audio #1
ID                               : 2
Format                           : AC-3
Format/Info                      : Audio Coding 3
Mode extension                   : CM (complete main)
Codec ID                         : A_AC3
Duration                         : 1h 50mn
Bit rate mode                    : Constant
Bit rate                         : 192 Kbps
Channel(s)                       : 2 channels
Channel positions                : Front: L R
Sampling rate                    : 48.0 KHz
Bit depth                        : 16 bits
Stream size                      : 152 MiB (1%)
Title                            : MVO [ОРТ]
Language                         : Russian
Audio #2
ID                               : 3
Format                           : AC-3
Format/Info                      : Audio Coding 3
Mode extension                   : CM (complete main)
Codec ID                         : A_AC3
Duration                         : 1h 50mn
Bit rate mode                    : Constant
Bit rate                         : 192 Kbps
Channel(s)                       : 2 channels
Channel positions                : Front: L R
Sampling rate                    : 48.0 KHz
Bit depth                        : 16 bits
Stream size                      : 152 MiB (1%)
Title                            : DVO [НТВ+]
Language                         : Russian
Audio #3
ID                               : 4
Format                           : AC-3
Format/Info                      : Audio Coding 3
Mode extension                   : CM (complete main)
Codec ID                         : A_AC3
Duration                         : 1h 50mn
Bit rate mode                    : Constant
Bit rate                         : 192 Kbps
Channel(s)                       : 2 channels
Channel positions                : Front: L R
Sampling rate                    : 48.0 KHz
Bit depth                        : 16 bits
Stream size                      : 152 MiB (1%)
Title                            : MVO [Видеосервис]
Language                         : Russian
Audio #4
ID                               : 5
Format                           : AC-3
Format/Info                      : Audio Coding 3
Mode extension                   : CM (complete main)
Codec ID                         : A_AC3
Duration                         : 1h 50mn
Bit rate mode                    : Constant
Bit rate                         : 192 Kbps
Channel(s)                       : 2 channels
Channel positions                : Front: L R
Sampling rate                    : 48.0 KHz
Bit depth                        : 16 bits
Stream size                      : 152 MiB (1%)
Title                            : Андрей Гаврилов
Language                         : Russian
Audio #5
ID                               : 6
Format                           : DTS
Format/Info                      : Digital Theater Systems
Format profile                   : MA
Codec ID                         : A_DTS
Duration                         : 1h 50mn
Bit rate mode                    : Variable
Channel(s)                       : 6 channels
Channel positions                : Front: L C R, Side: L R, LFE
Sampling rate                    : 48.0 KHz
Bit depth                        : 24 bits
Language                         : English
Text #1
ID                               : 7
Format                           : UTF-8
Codec ID                         : S_TEXT/UTF8
Codec ID/Info                    : UTF-8 Plain Text
Title                            : SDH
Language                         : Russian
Text #2
ID                               : 8
Format                           : UTF-8
Codec ID                         : S_TEXT/UTF8
Codec ID/Info                    : UTF-8 Plain Text
Title                            : SDH
Language                         : English
Menu
00:00:00.000                     : en:00:00:00.000
00:07:52.180                     : en:00:07:52.180
00:16:17.810                     : en:00:16:17.810
00:26:18.911                     : en:00:26:18.911
00:40:52.408                     : en:00:40:52.408
00:48:04.465                     : en:00:48:04.465
00:57:36.828                     : en:00:57:36.828
01:04:35.497                     : en:01:04:35.497
01:08:32.692                     : en:01:08:32.692
01:16:28.751                     : en:01:16:28.751
01:27:00.590                     : en:01:27:00.590
01:35:48.034                     : en:01:35:48.034
01:42:56.462                     : en:01:42:56.462
01:47:10.591                     : en:01:47:10.591

Скриншоты


Скачать

Скачать торрент!

Как скачивать? · Что такое торрент? · Рейтинг и ограничения

Сайт не распространяет и не хранит электронные версии произведений, а лишь предоставляет доступ к создаваемому пользователями каталогу ссылок на торрент-файлы, которые содержат только списки хеш-сумм

[Профиль] [ЛС]
Показать сообщения:    
Ответить на тему

Текущее время: Сегодня 18:15

Часовой пояс: GMT + 4



Вы не можете начинать темы
Вы не можете отвечать на сообщения
Вы не можете редактировать свои сообщения
Вы не можете удалять свои сообщения
Вы не можете голосовать в опросах
Вы не можете прикреплять файлы к сообщениям
Вы не можете скачивать файлы