Карты, деньги, два ствола / Lock, Stock and Two Smoking Barrels (Гай Ричи / Guy Ritchie) [1998, Великобритания, криминал, комедия, BDRip 1080p] MVO (Киномания) + AVO (Гоблин, Сербин) + Original (Eng) + Subs (Rus, Eng)

Ответить на тему
 
Автор Сообщение

user ®

Стаж: 7 лет 7 месяцев

Сообщений: 20008

Пост Пост: #1 от 06-Сен-2013 10:00

[Цитировать]

Карты, деньги, два ствола Lock, Stock and Two Smoking Barrels Страна: Великобритания
Жанр: драма, криминал, комедия
Год выпуска: 1998
Продолжительность: 01:47:23-Перевод 1: Профессиональный (многоголосый закадровый) |Киномания|
Перевод 2: Авторский (одноголосый закадровый) |Гоблин_2|
Перевод 3: Авторский (одноголосый закадровый) |Ю. Сербин|
Cубтитры: английские, русские
Оригинальная аудиодорожка: английский -Режиссер: Гай Ричи / Guy Ritchie-В ролях-Джейсон Стэйтем, Ник Моран, Джейсон Флеминг, Декстер Флетчер, Винни Джонс, Стинг, Стивен Макинтош, Николас Роу, Ник Марк, Чарльз Форбс-Описание-Четверо молодых парней накопили каждый по 25 тысяч фунтов, чтобы один из них мог сыграть в карты с опытным шулером и матерым преступником, известным по кличке Гарри-Топор. Парень в итоге проиграл 500 тысяч, на уплату долга ему дали неделю. В противном случае и ему и его “спонсорам” каждый день будут отрубать по пальцу, а потом… Чтобы выйти из положения, ребята решили ограбить бандитов, решивших ограбить трех “ботаников”, выращивающих марихуану для местного наркобарона. Гарри-Топор тем временем нанимает через своего подручного двух крайне неумных типов добыть для него ружья, среди которых есть два очень дорогих антикварных. Посчитав их старой рухлядью, бандиты продали антиквариат нашим героям, а те использовали двухстволки для ограбления. Топор, естественно, потребовал ружья обратно…-Качество видео: BDRip 1080p
Исходное видео: Blu-Ray disk (custom) |АДмин|-Контейнер: MKV-Видео: AVC, ~17 Mbps, 1920x1040 (16:9), 23.976 fps
Аудио: AC-3, 640 kbps, Dolby Digital, 3/2 (L,C,R,l,r) + LFE ch, 48 KHz |MVO|
Аудио: AC-3, 448 kbps, Dolby Digital, 3/2 (L,C,R,l,r) + LFE ch, 48 KHz |AVO_Ю. Сербин|
Аудио: DTS, 1510 kbps, 5.1 (Front: L C R, Side: L R, LFE), 48 KHz |AVO_Гоблин|
Аудио: DTS, 1510 kbps, 5.1 (Front: L C R, Side: L R, LFE), 48 KHz |Original|
Формат субтитров: softsub (SRT)
Главы: есть-

MediaInfo

х264

x264 [info]: frame I:939 Avg QP:18.23 size:231550
x264 [info]: frame P:28943 Avg QP:20.78 size:124530
x264 [info]: frame B:124603 Avg QP:23.72 size: 79522
x264 [info]: consecutive B-frames: 1.2% 1.0% 2.2% 12.8% 10.3% 57.9% 9.3% 5.3%
x264 [info]: mb I I16..4: 9.8% 78.0% 12.2%
x264 [info]: mb P I16..4: 4.6% 22.4% 1.3% P16..4: 33.5% 23.4% 9.2% 0.0% 0.0% skip: 5.6%
x264 [info]: mb B I16..4: 0.3% 3.9% 0.1% B16..8: 39.5% 16.2% 4.9% direct:16.4% skip:18.7% L0:40.2% L1:38.8% BI:21.0%
x264 [info]: 8x8 transform intra:82.8% inter:62.6%
x264 [info]: coded y,uvDC,uvAC intra: 85.6% 61.7% 22.7% inter: 59.1% 25.3% 1.0%
x264 [info]: i16 v,h,dc,p: 83% 6% 5% 6%
x264 [info]: i8 v,h,dc,ddl,ddr,vr,hd,vl,hu: 7% 7% 7% 11% 17% 13% 14% 11% 14%
x264 [info]: i4 v,h,dc,ddl,ddr,vr,hd,vl,hu: 6% 6% 4% 10% 17% 14% 15% 12% 16%
x264 [info]: i8c dc,h,v,p: 37% 26% 22% 15%
x264 [info]: Weighted P-Frames: Y:4.0% UV:1.0%
x264 [info]: ref P L0: 55.3% 11.5% 32.2% 1.0% 0.0%
x264 [info]: ref B L0: 86.9% 13.1%
x264 [info]: ref B L1: 91.3% 8.7%
x264 [info]: kb/s:17047.56
Формат : Matroska
Версия формата : Version 2
Размер файла : 15,9 Гбайт
Продолжительность : 1 ч. 47 м.
Общий поток : 21,2 Мбит/сек
Название фильма : Карты, деньги, два ствола
Дата кодирования : UTC 2013-09-05 09:43:48
Программа кодирования : mkvmerge v5.5.0 ('Healer') built on Apr 24 2012 23:47:03
Библиотека кодирования : libebml v1.2.3 + libmatroska v1.3.0
Видео
Идентификатор : 1
Формат : AVC
Формат/Информация : Advanced Video Codec
Профиль формата : High@L4.1
Параметр CABAC формата : Да
Параметр ReFrames формата : 3 кадра
Идентификатор кодека : V_MPEG4/ISO/AVC
Продолжительность : 1 ч. 47 м.
Битрейт : 16,6 Мбит/сек
Ширина : 1920 пикселей
Высота : 1040 пикселей
Соотношение сторон : 1,85:1
Частота кадров : 23,976 кадра/сек
Цветовое пространство : YUV
Субдискретизация насыщенности : 4:2:0
Битовая глубина : 8 бит
Тип развёртки : Прогрессивная
Бит/(Пиксели*Кадры) : 0.347
Размер потока : 12,5 Гбайт (79%)
Заголовок : L.S.T.S.B.1998_BDRip.1080p_cw
Библиотека кодирования : x264 core 119 r2106 07efeb4
Настройки программы : cabac=1 / ref=3 / deblock=1:-3:-2 / analyse=0x3:0x113 / me=umh / subme=9 / psy=1 / psy_rd=1.00:0.00 / mixed_ref=1 / me_range=32 / chroma_me=1 / trellis=2 / 8x8dct=1 / cqm=0 / deadzone=21,11 / fast_pskip=0 / chroma_qp_offset=-2 / threads=4 / sliced_threads=0 / nr=0 / decimate=1 / interlaced=0 / bluray_compat=0 / constrained_intra=0 / bframes=7 / b_pyramid=1 / b_adapt=2 / b_bias=0 / direct=1 / weightb=1 / open_gop=0 / weightp=2 / keyint=250 / keyint_min=23 / scenecut=40 / intra_refresh=0 / rc_lookahead=50 / rc=crf / mbtree=1 / crf=20.0 / qcomp=0.60 / qpmin=0 / qpmax=69 / qpstep=4 / ip_ratio=1.40 / aq=1:1.00
Язык : English
Default : Да
Forced : Нет
Аудио #1
Идентификатор : 2
Формат : AC-3
Формат/Информация : Audio Coding 3
Расширение режима : CM (complete main)
Параметр Endianness формата : Big
Идентификатор кодека : A_AC3
Продолжительность : 1 ч. 47 м.
Вид битрейта : Постоянный
Битрейт : 640 Кбит/сек
Каналы : 6 каналов
Расположение каналов : Front: L C R, Side: L R, LFE
Частота : 48,0 КГц
Битовая глубина : 16 бит
Метод сжатия : С потерями
Размер потока : 492 Мбайт (3%)
Заголовок : MVO_Киномания
Язык : Russian
Default : Да
Forced : Нет
Аудио #2
Идентификатор : 3
Формат : DTS
Формат/Информация : Digital Theater Systems
Идентификатор кодека : A_DTS
Продолжительность : 1 ч. 47 м.
Вид битрейта : Постоянный
Битрейт : 1510 Кбит/сек
Каналы : 6 каналов
Расположение каналов : Front: L C R, Side: L R, LFE
Частота : 48,0 КГц
Битовая глубина : 24 бит
Метод сжатия : С потерями
Размер потока : 1,13 Гбайт (7%)
Заголовок : AVO_Гоблин
Язык : Russian
Default : Нет
Forced : Нет
Аудио #3
Идентификатор : 4
Формат : AC-3
Формат/Информация : Audio Coding 3
Расширение режима : CM (complete main)
Параметр Endianness формата : Big
Идентификатор кодека : A_AC3
Продолжительность : 1 ч. 47 м.
Вид битрейта : Постоянный
Битрейт : 448 Кбит/сек
Каналы : 6 каналов
Расположение каналов : Front: L C R, Side: L R, LFE
Частота : 48,0 КГц
Битовая глубина : 16 бит
Метод сжатия : С потерями
Размер потока : 344 Мбайт (2%)
Заголовок : AVO_Сербин
Язык : Russian
Default : Нет
Forced : Нет
Аудио #4
Идентификатор : 5
Формат : DTS
Формат/Информация : Digital Theater Systems
Идентификатор кодека : A_DTS
Продолжительность : 1 ч. 47 м.
Вид битрейта : Постоянный
Битрейт : 1510 Кбит/сек
Каналы : 6 каналов
Расположение каналов : Front: L C R, Side: L R, LFE
Частота : 48,0 КГц
Битовая глубина : 24 бит
Метод сжатия : С потерями
Размер потока : 1,13 Гбайт (7%)
Заголовок : Original
Язык : English
Default : Нет
Forced : Нет
Текст #1
Идентификатор : 6
Формат : UTF-8
Идентификатор кодека : S_TEXT/UTF8
Идентификатор кодека/Информация : UTF-8 Plain Text
Заголовок : Гоблин
Язык : Russian
Default : Да
Forced : Нет
Текст #2
Идентификатор : 7
Формат : UTF-8
Идентификатор кодека : S_TEXT/UTF8
Идентификатор кодека/Информация : UTF-8 Plain Text
Язык : Russian
Default : Нет
Forced : Нет
Текст #3
Идентификатор : 8
Формат : UTF-8
Идентификатор кодека : S_TEXT/UTF8
Идентификатор кодека/Информация : UTF-8 Plain Text
Язык : English
Default : Нет
Forced : Нет
Меню
00:00:00.000 : :Chapter 01
00:05:00.000 : :Chapter 02
00:10:00.000 : :Chapter 03
00:15:00.000 : :Chapter 04
00:20:00.000 : :Chapter 05
00:25:00.000 : :Chapter 06
00:30:00.000 : :Chapter 07
00:35:00.000 : :Chapter 08
00:40:00.000 : :Chapter 09
00:45:00.000 : :Chapter 10
00:50:00.000 : :Chapter 11
00:55:00.000 : :Chapter 12
01:00:00.000 : :Chapter 13
01:05:00.000 : :Chapter 14
01:10:00.000 : :Chapter 15
01:15:00.000 : :Chapter 16
01:20:00.000 : :Chapter 17
01:25:00.000 : :Chapter 18
01:30:00.000 : :Chapter 19
01:35:00.000 : :Chapter 20
01:40:00.000 : :Chapter 21
01:45:00.000 : :Chapter 22

Сравнение с BD

BD- Rip
Скачать

Скачать торрент!

Как скачивать? · Что такое торрент? · Рейтинг и ограничения

Сайт не распространяет и не хранит электронные версии произведений, а лишь предоставляет доступ к создаваемому пользователями каталогу ссылок на торрент-файлы, которые содержат только списки хеш-сумм

[Профиль] [ЛС]
Показать сообщения:    
Ответить на тему

Текущее время: Сегодня 13:40

Часовой пояс: GMT + 4



Вы не можете начинать темы
Вы не можете отвечать на сообщения
Вы не можете редактировать свои сообщения
Вы не можете удалять свои сообщения
Вы не можете голосовать в опросах
Вы не можете прикреплять файлы к сообщениям
Вы не можете скачивать файлы