Обливион / Oblivion (Джозеф Косински / Joseph Kosinski) [2013, США, Фантастика / боевик / триллер, BDRip 1080p] Dub + AVO (Сербин) + Original Eng + Sub Rus, Eng

Ответить на тему
 
Автор Сообщение

user ®

Стаж: 7 лет 7 месяцев

Сообщений: 20008

Пост Пост: #1 от 06-Сен-2013 10:00

[Цитировать]

.: Обливион :: Oblivion :. Страна: США
Студия: Universal Pictures
Жанр: Фантастика / боевик / триллер
Год выпуска: 2013
Продолжительность: 2:04:42
Перевод 1: Профессиональный (дублированный)
Перевод 2: Авторский (одноголосый закадровый) Сербин
Оригинальная аудиодорожка: Английская
Cубтитры: Русские (Voronine, BluRay), английские
Режиссер: Джозеф Косински / Joseph Kosinski
В ролях: Том Круз, Андреа Райзборо, Ольга Куриленко, Морган Фриман, Мелисса Лео, Николай Костер-Вальдау, Зои Белл и др.
Описание: Земля, пережившая войну с инопланетными захватчиками, опустела; остатки человечества готовятся покинуть непригодную для жизни планету. Главный герой — техник по обслуживанию дронов — находит разбившийся корабль NASA, команда которого погибает у него на глазах. Ему удаётся спасти лишь одну женщину — и вскоре он понимает, что это перевернёт его жизнь.
Сэмпл: SendFile.su
Тип релиза: BDRip 1080p
Контейнер: MKV
Видео: BDRip 1080p / 1920x804 / 23.976 fps / 13489 kbps
Аудио 1: Дубляж / DTS / 5.1 ch / 48 KHz / 755 kbps
Аудио 2: Сербин / DTS / 5.1 ch / 48 KHz / 1510 kbps
Аудио 3: Оригинал / DTS / 5.1 ch / 48 KHz / 1510 kbps
Субтитры 1: Voronine / (SRT)
Субтитры 2: BluRay / (SRT)
Субтитры 3: Оригинальные (английские) / (SRT)

MediaInfo

General
Format : Matroska
Format version : Version 2
File size : 15.1 GiB
Duration : 2h 4mn
Overall bit rate : 17.3 Mbps
Writing application : mkvmerge v3.4.0 ('Rapunzel') сборка от Jun 2 2010 23:27:56
Writing library : libebml v0.8.1 + libmatroska v0.9.0
Video
ID : 1
Format : AVC
Format/Info : Advanced Video Codec
Format profile : High@L4.1
Format settings, CABAC : Yes
Format settings, ReFrames : 5 frames
Codec ID : V_MPEG4/ISO/AVC
Duration : 2h 4mn
Bit rate : 13.5 Mbps
Width : 1 920 pixels
Height : 804 pixels
Display aspect ratio : 2.40:1
Frame rate : 23.976 fps
Color space : YUV
Chroma subsampling : 4:2:0
Bit depth : 8 bits
Scan type : Progressive
Bits/(Pixel*Frame) : 0.365
Stream size : 11.5 GiB (76%)
Title : BDRip 1080p by nabby_3
Writing library : x264 core 133 r2334 a3ac64b
Encoding settings : cabac=1 / ref=5 / deblock=1:-3:-3 / analyse=0x3:0x133 / me=tesa / subme=11 / psy=1 / psy_rd=1.10:0.06 / mixed_ref=1 / me_range=24 / chroma_me=1 / trellis=2 / 8x8dct=1 / cqm=0 / deadzone=21,11 / fast_pskip=0 / chroma_qp_offset=-3 / threads=9 / lookahead_threads=2 / sliced_threads=0 / nr=0 / decimate=1 / interlaced=0 / bluray_compat=0 / constrained_intra=0 / bframes=10 / b_pyramid=2 / b_adapt=2 / b_bias=0 / direct=3 / weightb=1 / open_gop=0 / weightp=2 / keyint=240 / keyint_min=22 / scenecut=40 / intra_refresh=0 / rc=2pass / mbtree=0 / bitrate=13500 / ratetol=1.0 / qcomp=0.72 / qpmin=0 / qpmax=69 / qpstep=4 / cplxblur=20.0 / qblur=0.5 / ip_ratio=1.40 / pb_ratio=1.30 / aq=2:0.85
Language : English
Default : No
Forced : No
Audio #1
ID : 2
Format : DTS
Format/Info : Digital Theater Systems
Codec ID : A_DTS
Duration : 2h 4mn
Bit rate mode : Constant
Bit rate : 755 Kbps
Channel(s) : 6 channels
Channel positions : Front: L C R, Side: L R, LFE
Sampling rate : 48.0 KHz
Bit depth : 24 bits
Compression mode : Lossy
Stream size : 673 MiB (4%)
Title : Dub / DTS / 5.1 ch / 755 kbps
Language : Russian
Default : Yes
Forced : No
Audio #2
ID : 3
Format : DTS
Format/Info : Digital Theater Systems
Codec ID : A_DTS
Duration : 2h 4mn
Bit rate mode : Constant
Bit rate : 1 510 Kbps
Channel(s) : 6 channels
Channel positions : Front: L C R, Side: L R, LFE
Sampling rate : 48.0 KHz
Bit depth : 24 bits
Compression mode : Lossy
Stream size : 1.32 GiB (9%)
Title : Serbin / DTS / 5.1 ch / 1510 kbps
Language : Russian
Default : No
Forced : No
Audio #3
ID : 4
Format : DTS
Format/Info : Digital Theater Systems
Codec ID : A_DTS
Duration : 2h 4mn
Bit rate mode : Constant
Bit rate : 1 510 Kbps
Channel(s) : 6 channels
Channel positions : Front: L C R, Side: L R, LFE
Sampling rate : 48.0 KHz
Bit depth : 24 bits
Compression mode : Lossy
Stream size : 1.32 GiB (9%)
Title : Original / DTS / 5.1 ch / 1510 kbps
Language : English
Default : No
Forced : No
Text #1
ID : 5
Format : UTF-8
Codec ID : S_TEXT/UTF8
Codec ID/Info : UTF-8 Plain Text
Title : Voronine
Language : Russian
Default : No
Forced : No
Text #2
ID : 6
Format : UTF-8
Codec ID : S_TEXT/UTF8
Codec ID/Info : UTF-8 Plain Text
Title : BluRay
Language : Russian
Default : No
Forced : No
Text #3
ID : 7
Format : UTF-8
Codec ID : S_TEXT/UTF8
Codec ID/Info : UTF-8 Plain Text
Title : English
Language : English
Default : No
Forced : No
Menu
00:00:00.000 : :
00:04:31.354 : :
00:12:51.813 : :
00:21:25.284 : :
00:27:20.138 : :
00:35:30.337 : :
00:40:06.779 : :
00:46:16.023 : :
00:52:22.181 : :
01:01:59.716 : :
01:07:59.409 : :
01:16:25.831 : :
01:22:08.173 : :
01:25:31.752 : :
01:30:22.542 : :
01:36:30.368 : :
01:40:29.106 : :
01:46:27.423 : :
01:53:05.320 : :

x264 2-nd pass

x264 [info]: frame I:1357 Avg QP:13.24 size:291776
x264 [info]: frame P:38859 Avg QP:15.26 size:119332
x264 [info]: frame B:139180 Avg QP:17.43 size: 54484
x264 [info]: consecutive B-frames: 3.0% 2.9% 8.0% 10.8% 14.2% 50.7% 5.5% 1.1% 0.9% 2.1% 0.7%
x264 [info]: kb/s:13489.12

Сравнения

--------
nabby_3
--------
-------
Source
-------
Скачать

Скачать торрент!

Как скачивать? · Что такое торрент? · Рейтинг и ограничения

Сайт не распространяет и не хранит электронные версии произведений, а лишь предоставляет доступ к создаваемому пользователями каталогу ссылок на торрент-файлы, которые содержат только списки хеш-сумм

[Профиль] [ЛС]
Показать сообщения:    
Ответить на тему

Текущее время: Сегодня 15:54

Часовой пояс: GMT + 4



Вы не можете начинать темы
Вы не можете отвечать на сообщения
Вы не можете редактировать свои сообщения
Вы не можете удалять свои сообщения
Вы не можете голосовать в опросах
Вы не можете прикреплять файлы к сообщениям
Вы не можете скачивать файлы