Обливион / Oblivion (Джозеф Косински / Joseph Kosinski) [2013, США, фантастика, боевик, триллер, BDRip 720p] Dub + AVO (Юрий Сербин) + Sub Rus, Eng + Original Eng

Ответить на тему
 
Автор Сообщение

user ®

Стаж: 7 лет 7 месяцев

Сообщений: 20008

Пост Пост: #1 от 06-Сен-2013 10:00

[Цитировать]

-Обливион / Oblivion-Страна: США
Студия: Universal Pictures
Жанр: фантастика, боевик, триллер
Год выпуска: 2013
Продолжительность: 02:04:42-Перевод: Профессиональный (дублированный)
Перевод 2: Авторский (одноголосый закадровый) Юрий Сербин
Cубтитры: русские (4 варианта), английские (3 варианта)
Оригинальная аудиодорожка: английский-Режиссер: Джозеф Косински / Joseph Kosinski
В ролях: Том Круз, Ольга Куриленко, Андреа Райзборо, Морган Фриман, Николай Костер-Вальдау, Мелисса Лео, Зои Белл, Эбигейл Лоу, Изабель Лоу, Дэвид Мэдисон-Описание: Земля, пережившая войну с инопланетными захватчиками, опустела; остатки человечества готовятся покинуть непригодную для жизни планету. Главный герой — техник по обслуживанию дронов — находит разбившийся корабль NASA, команда которого погибает у него на глазах. Ему удаётся спасти лишь одну женщину — и вскоре он понимает, что это перевернёт его жизнь.-Сэмпл: http://yadi.sk/d/P0uhqebg8nedJ-Тип релиза: BDRip 720p
Контейнер: MKV
Видео: MPEG-4 AVC Video 8465 kbps 1280x536p / 23,976 fps / High Profile 4.1
Аудио: DTS Audio Russian 5.1 / 48 kHz / 768 kbps / 24-bit | Дубляж
Аудио: DTS Audio Russian 5.1 / 48 kHz / 1509 kbps / 24-bit | Юрий Сербин
Аудио: DTS Audio English 5.1 / 48 kHz / 1509 kbps / 24-bit
Формат субтитров: softsub (SRT)

Видеоряд от EbP

Technical information
RELEASE NAME.: Oblivion 2013 720p BluRay DD5.1 x264-EbPRELEASE DATE.: 27/Jul/2013RELEASE SIZE.: 8.26 GBRUNTIME......: 2:04:42VIDEO CODEC..: x264, CRF, L4.1FRAMERATE....: 23.976 fpsBITRATE......: 8465 KbpsRESOLUTION...: 1280x536AUDIO .......: English Dolby Digital Audio 5.1 @ 640 Kbps.AUDIO 2......: Commentry by Actor Tom Cruise and Director Joseph Kosinski AC-3 2.0 @ 192 KbpsSUBTITLES....: English, Spanish, FrenchCHAPTER......: YesSOURCE.......: Oblivion 2013 1080p Blu-ray AVC DTS-HD MA 7.1-HDWinGEncoder.......: DarkSonSami (EbP)Notes:Special thanks to all EbP members.
x264 infox264 [info]: profile High, level 4.1x264 [info]: frame I:1549 Avg QP:11.99 size:146847x264 [info]: frame P:38897 Avg QP:12.43 size: 78873x264 [info]: frame B:138949 Avg QP:14.22 size: 34391x264 [info]: consecutive B-frames: 2.8% 3.2% 7.6% 13.6% 16.1% 43.4% 6.6% 3.1% 3.6%encoded 179395 frames, 6.30 fps, 8632.74 kb/s

MI

General
Complete name                    : X:\  -= Фильмы =-\Обливион (2013. Oblivion) 720p.mkv
Format                           : Matroska
File size                        : 10.8 GiB
Duration                         : 2h 4mn
Overall bit rate                 : 12.4 Mbps
Movie name                       : Release for
Encoded date                     : UTC 2013-09-05 22:11:34
Writing application              : mkvmerge v4.9.1 ('Ich will') сборка от Jul 11 2011 23:53:15
Writing library                  : libebml v1.2.1 + libmatroska v1.1.1
Video
ID                               : 1
Format                           : AVC
Format/Info                      : Advanced Video Codec
Format profile                   : High@L4.1
Format settings, CABAC           : Yes
Format settings, ReFrames        : 12 frames
Muxing mode                      : Container profile=Unknown@4.1
Codec ID                         : V_MPEG4/ISO/AVC
Duration                         : 2h 4mn
Bit rate                         : 8 402 Kbps
Width                            : 1 280 pixels
Height                           : 536 pixels
Display aspect ratio             : 2.35:1
Frame rate                       : 23.976 fps
Color space                      : YUV
Chroma subsampling               : 4:2:0
Bit depth                        : 8 bits
Scan type                        : Progressive
Bits/(Pixel*Frame)               : 0.511
Stream size                      : 7.32 GiB (68%)
Title                            : Oblivion.2013.720p.BluRay.DD5.1.x264-EbP
Writing library                  : x264 core 130 r2273 b3065e6
Encoding settings                : cabac=1 / ref=12 / deblock=1:-3:-3 / analyse=0x3:0x133 / me=umh / subme=10 / psy=1 / psy_rd=0.90:0.00 / mixed_ref=1 / me_range=48 / chroma_me=1 / trellis=2 / 8x8dct=1 / cqm=0 / deadzone=21,11 / fast_pskip=0 / chroma_qp_offset=-2 / threads=12 / lookahead_threads=2 / sliced_threads=0 / nr=0 / decimate=0 / interlaced=0 / bluray_compat=0 / constrained_intra=0 / bframes=8 / b_pyramid=2 / b_adapt=2 / b_bias=0 / direct=3 / weightb=1 / open_gop=0 / weightp=2 / keyint=250 / keyint_min=23 / scenecut=40 / intra_refresh=0 / rc=crf / mbtree=0 / crf=14.5 / qcomp=0.80 / qpmin=0 / qpmax=69 / qpstep=4 / ip_ratio=1.30 / pb_ratio=1.30 / aq=1:0.85
Language                         : English
Audio #1
ID                               : 2
Format                           : DTS
Format/Info                      : Digital Theater Systems
Codec ID                         : A_DTS
Duration                         : 2h 4mn
Bit rate mode                    : Constant
Bit rate                         : 755 Kbps
Channel(s)                       : 6 channels
Channel positions                : Front: L C R, Side: L R, LFE
Sampling rate                    : 48.0 KHz
Bit depth                        : 24 bits
Stream size                      : 673 MiB (6%)
Title                            : Дубляж
Language                         : Russian
Audio #2
ID                               : 3
Format                           : DTS
Format/Info                      : Digital Theater Systems
Codec ID                         : A_DTS
Duration                         : 2h 4mn
Bit rate mode                    : Constant
Bit rate                         : 1 510 Kbps
Channel(s)                       : 6 channels
Channel positions                : Front: L C R, Side: L R, LFE
Sampling rate                    : 48.0 KHz
Bit depth                        : 24 bits
Stream size                      : 1.32 GiB (12%)
Title                            : Юрий Сербин
Language                         : Russian
Audio #3
ID                               : 4
Format                           : DTS
Format/Info                      : Digital Theater Systems
Codec ID                         : A_DTS
Duration                         : 2h 4mn
Bit rate mode                    : Constant
Bit rate                         : 1 510 Kbps
Channel(s)                       : 6 channels
Channel positions                : Front: L C R, Side: L R, LFE
Sampling rate                    : 48.0 KHz
Bit depth                        : 24 bits
Stream size                      : 1.32 GiB (12%)
Language                         : English
Text #1
ID                               : 5
Format                           : UTF-8
Codec ID                         : S_TEXT/UTF8
Codec ID/Info                    : UTF-8 Plain Text
Title                            : forced
Language                         : Russian
Text #2
ID                               : 6
Format                           : UTF-8
Codec ID                         : S_TEXT/UTF8
Codec ID/Info                    : UTF-8 Plain Text
Title                            : Blu-Ray
Language                         : Russian
Text #3
ID                               : 7
Format                           : UTF-8
Codec ID                         : S_TEXT/UTF8
Codec ID/Info                    : UTF-8 Plain Text
Title                            : По дубляжу с правками от Евгения Воронина
Language                         : Russian
Text #4
ID                               : 8
Format                           : UTF-8
Codec ID                         : S_TEXT/UTF8
Codec ID/Info                    : UTF-8 Plain Text
Title                            : По дубляжу с правками от неизвестного бойца
Language                         : Russian
Text #5
ID                               : 9
Format                           : UTF-8
Codec ID                         : S_TEXT/UTF8
Codec ID/Info                    : UTF-8 Plain Text
Language                         : English
Text #6
ID                               : 10
Format                           : UTF-8
Codec ID                         : S_TEXT/UTF8
Codec ID/Info                    : UTF-8 Plain Text
Title                            : SDH
Language                         : English
Text #7
ID                               : 11
Format                           : UTF-8
Codec ID                         : S_TEXT/UTF8
Codec ID/Info                    : UTF-8 Plain Text
Title                            : SDH COLORED
Language                         : English
Menu
00:00:00.000                     : en:Chapter 1
00:04:31.605                     : en:Chapter 2
00:12:52.063                     : en:Chapter 3
00:21:25.535                     : en:Chapter 4
00:27:20.389                     : en:Chapter 5
00:35:30.587                     : en:Chapter 6
00:40:07.030                     : en:Chapter 7
00:46:16.274                     : en:Chapter 8
00:52:22.431                     : en:Chapter 9
01:01:59.967                     : en:Chapter 10
01:07:59.659                     : en:Chapter 11
01:16:26.082                     : en:Chapter 12
01:22:08.424                     : en:Chapter 13
01:25:32.002                     : en:Chapter 14
01:30:22.793                     : en:Chapter 15
01:36:30.619                     : en:Chapter 16
01:40:29.357                     : en:Chapter 17
01:46:27.673                     : en:Chapter 18
01:53:05.571                     : en:Chapter 19
01:58:24.097                     : en:Chapter 20

Скриншоты


  • Дорожка №2 получены наложением чистого голоса на центр декодированного DTS-HD MA. Спасибо и nadoeloru
  • Перевод у Сербина выкуплен в рамках сервиса "Озвучивание". Спонсоры: HDClub, а так же пользователи ресурсов e180, за что им огромная благодарность.
Скачать

Скачать торрент!

Как скачивать? · Что такое торрент? · Рейтинг и ограничения

Сайт не распространяет и не хранит электронные версии произведений, а лишь предоставляет доступ к создаваемому пользователями каталогу ссылок на торрент-файлы, которые содержат только списки хеш-сумм

[Профиль] [ЛС]
Показать сообщения:    
Ответить на тему

Текущее время: Сегодня 18:26

Часовой пояс: GMT + 4



Вы не можете начинать темы
Вы не можете отвечать на сообщения
Вы не можете редактировать свои сообщения
Вы не можете удалять свои сообщения
Вы не можете голосовать в опросах
Вы не можете прикреплять файлы к сообщениям
Вы не можете скачивать файлы