В поисках Немо / Finding Nemo (Эндрю Стэнтон / Andrew Stanton, Ли Анкрич / Lee Unkrich) [2003, Мультфильм, Комедия, Приключения, Семейный, HDRip] DUB

Ответить на тему
 
Автор Сообщение

user ®

Стаж: 13 лет

Сообщений: 15041

Пост Пост: #1 от 05-Сен-2013 15:40

[Цитировать]

В поисках Немо
Finding Nemo
-Год выпуска: 2003
Страна: США
Бюджет: $94 000 000
Жанр: Мультфильм, Комедия, Приключения, Семейный
Продолжительность: 01:40:53
Перевод: Профессиональный (дублированный)
Русские субтитры: нет-Режиссер: Эндрю Стэнтон /Andrew Stanton/, Ли Анкрич /Lee Unkrich/-В ролях: Эллен ДеДженерес /Ellen DeGeneres/, Альберт Брукс /Albert Brooks/, Уиллем Дефо /Willem Dafoe/, Эллисон Дженни /Allison Janney/, Джо Рэнфт /Joe Ranft/, Джеффри Раш /Geoffrey Rush/, Элизабет Перкинс /Elizabeth Perkins/, Эндрю Стэнтон /Andrew Stanton/, Александр Гулд /Alexander Gould/, Эрик Бана /Eric Bana/ ...-Описание: Среди прекрасных тропических морских стихий, в районе Большого барьерного рифа в уединении живет рыба-клоун по имени Марлин. Он растит своего единственного сыночка Немо. Океан и существующие в нем опасности очень страшат Марлина, и он как может ограждает сына от них, но молодой Немо, страдающий излишним любопытством, очень хочет разузнать побольше о таинственном рифе, рядом с которым они живут.
Когда Немо по иронии судьбы оказывается вдалеке от дома, да и еще сталкивается с угрозой стать обедом рыбы-танка, Марлин отправляется на поиски сына. Но Марлин, конечно же, понимает, что героический спасатель из него не получится и просит о помощи в поисках, Дори, королевскую синюю рыбу, которая хоть и страдает от того, что почти ничего не помнит, но добрее ее не отыскать во всем безбрежном океане!
Итак, наши герои отправляются в путешествие, в котором их подкарауливают многочисленные трудности и опасности...
-IMDB Rating - 8.10 (387 434) | КиноПоиск Rating- 7.954 (66 475)-Семпл: http://multi-up.com/900473-Качество видео: HDRip (исходник BDRip 720p от HQ-ViDEO)
Формат видео: AVI
Видео: 720x400 (1.80:1), 23.976 fps, XviD build 47 ~1668 kbps avg, 0.24 bit/pixel
Аудио: 48 kHz, AC3 Dolby Digital, 3/2 (L,C,R,l,r) + LFE ch, ~384 kbps
Субтитры: отсутствуют-

MediaInfo

General
Complete name : Finding Nemo.avi
Format : AVI
Format/Info : Audio Video Interleave
File size : 1.45 GiB
Duration : 1h 40mn
Overall bit rate : 2 062 Kbps
Movie name : В поисках Немо / Finding Nemo (2003)
Director : HDRip
Writing application : VirtualDubMod 1.5.10.3 (build 2550/release)
Writing library : VirtualDubMod build 2550/release
Comment : 2013
Video
ID : 0
Format : MPEG-4 Visual
Format profile : Advanced Simple@L5
Format settings, BVOP : 1
Format settings, QPel : No
Format settings, GMC : No warppoints
Format settings, Matrix : Default (MPEG)
Codec ID : XVID
Codec ID/Hint : XviD
Duration : 1h 40mn
Bit rate : 1 669 Kbps
Width : 720 pixels
Height : 400 pixels
Display aspect ratio : 16:9
Frame rate : 23.976 fps
Color space : YUV
Chroma subsampling : 4:2:0
Bit depth : 8 bits
Scan type : Progressive
Compression mode : Lossy
Bits/(Pixel*Frame) : 0.242
Stream size : 1.18 GiB (81%)
Writing library : XviD 1.2.0.dev47 (UTC 2006-11-01)
Audio
ID : 1
Format : AC-3
Format/Info : Audio Coding 3
Mode extension : CM (complete main)
Format settings, Endianness : Big
Codec ID : 2000
Duration : 1h 40mn
Bit rate mode : Constant
Bit rate : 384 Kbps
Channel count : 6 channels
Channel positions : Front: L C R, Side: L R, LFE
Sampling rate : 48.0 KHz
Bit depth : 16 bits
Compression mode : Lossy
Stream size : 277 MiB (19%)
Alignment : Split accross interleaves
Interleave, duration : 42 ms (1.00 video frame)
Interleave, preload duration : 500 ms

Скриншоты



-
Скачать

Скачать торрент! В поисках Немо / Finding Nemo (Эндрю Стэнтон / Andrew Stanton, Ли Анкрич / Lee Unkrich) [2003, Мультфильм, Комедия, Приключения, Семейный, HDRip] DUB

Как скачивать? · Что такое торрент? · Рейтинг и ограничения

Сайт не распространяет и не хранит электронные версии произведений, а лишь предоставляет доступ к создаваемому пользователями каталогу ссылок на торрент-файлы, которые содержат только списки хеш-сумм

[Профиль] [ЛС]
Показать сообщения:    
Ответить на тему

Текущее время: Сегодня 18:12

Часовой пояс: GMT + 4



Вы не можете начинать темы
Вы не можете отвечать на сообщения
Вы не можете редактировать свои сообщения
Вы не можете удалять свои сообщения
Вы не можете голосовать в опросах
Вы не можете прикреплять файлы к сообщениям
Вы не можете скачивать файлы