Мафия! / Мафия Джейн Остин / Jane Austen's Mafia! (1998) (Джим Эбрэхэмс / Jim Abrahams) [1998, США, комедия, криминал, BDRemux 1080p] MVO (Видеосервис) + DVO (TV1000) + AVO (Санаев) + AVO (Визгунов) + Original Eng

Ответить на тему
 
Автор Сообщение

user ®

Стаж: 7 лет 7 месяцев

Сообщений: 20008

Пост Пост: #1 от 04-Сен-2013 17:35

[Цитировать]

Мафия! / Мафия Джейн Остин / Jane Austen's Mafia! (1998)
Страна: США
Жанр: комедия, криминал
Год выпуска: 1998
Продолжительность: 01:26:47
Перевод: Профессиональный (многоголосый закадровый) Видеосервис
Перевод 2: Профессиональный (двухголосый закадровый) TV1000
Перевод 3: Авторский (одноголосый закадровый) Санаев
Перевод 4: Авторский (одноголосый закадровый) Визгунов
Cубтитры: нет
Оригинальная аудиодорожка: английский
Режиссер: Джим Эбрэхэмс / Jim Abrahams
В ролях: Джей Мор, Билли Бёрк, Кристина Эпплгейт, Памела Гидли, Олимпия Дукакис, Ллойд Бриджес, Джейсон Фучс, Джо Витерелли, Тони Ло Бьянко, Блейк Хэммонд
Описание: Главный герой Дон Винченцо Кортино — глава удивительно неорганизованной преступной группировки. В результате мафиозных разборок на крестного отца совершается коварное покушение — в него стреляют 47 раз, и это заставляет Дона Кортино задуматься о смысле жизни.Патриарху криминального мира нужен достойный преемник, который сможет окончательно дезорганизовать преступность в стране. У синьора Винченцо два сына: один — отважный герой войны, другой — законченный психопат и наркоман. Кого же выберет мудрый Дон?…
Сэмпл
Тип релиза: BDRemux 1080p
Контейнер: MKV
Видео: 1920x1080, MPEG-4 AVC, 23.976 fps, ~19.0 Mbps
Аудио: Russian, 192 Кбит/сек, 48.0 КГц, 6 каналов, 16 бит, AC3
Аудио 2: Russian, 192 Кбит/сек, 48.0 КГц, 6 каналов, 16 бит, AC3
Аудио 3: Russian, 192 Кбит/сек, 48.0 КГц, 6 каналов, 16 бит, AC3
Аудио 4: Russian, 192 Кбит/сек, 48.0 КГц, 6 каналов, 16 бит, AC3
Аудио 5: English, 1804 Кбит/сек, 48.0 КГц, 2 каналов, 16 бит, DTS HDMA (DTS Core: 2.0 48 kHz 1509 kbps 24-bit)

MediaInfo

Общее
Уникальный идентификатор : 208796654316137075158969812563165004670 (0x9D14C5DBB1F5091AACA6361DDFC1437E)
Полное имя : C:\Users\к\Desktop\КИНО HD\Jane.Austen's.Mafia.1998.BD-Remux.1080p.mkv
Формат : Matroska
Версия формата : Version 2
Размер файла : 13,1 Гбайт
Продолжительность : 1 ч. 26 м.
Режим общего битрейта : Переменный
Общий поток : 21,6 Мбит/сек
Дата кодирования : UTC 2013-09-04 10:14:39
Программа кодирования : mkvmerge v5.7.0 ('The Whirlwind') built on Jul 29 2012 15:12:35
Библиотека кодирования : libebml v1.2.3 + libmatroska v1.3.0
Видео
Идентификатор : 1
Формат : AVC
Формат/Информация : Advanced Video Codec
Профиль формата : High@L4.1
Параметр CABAC формата : Да
Параметр ReFrames формата : 4 кадра
Параметр GOP формата : M=3, N=24
Идентификатор кодека : V_MPEG4/ISO/AVC
Продолжительность : 1 ч. 26 м.
Вид битрейта : Переменный
Максимальный битрейт : 25,0 Мбит/сек
Ширина : 1920 пикселей
Высота : 1080 пикселей
Соотношение сторон : 16:9
Режим частоты кадров : Постоянный
Частота кадров : 23,976 кадра/сек
Стандарт вещания : NTSC
Цветовое пространство : YUV
Субдискретизация насыщенности : 4:2:0
Битовая глубина : 8 бит
Тип развёртки : Прогрессивная
Default : Да
Forced : Нет
Основные цвета : BT.709
Характеристики трансфера : BT.709
Коэффициенты матрицы : BT.709
Аудио #1
Идентификатор : 2
Формат : AC-3
Формат/Информация : Audio Coding 3
Расширение режима : CM (complete main)
Параметр Endianness формата : Big
Идентификатор кодека : A_AC3
Продолжительность : 1 ч. 26 м.
Вид битрейта : Постоянный
Битрейт : 192 Кбит/сек
Каналы : 2 канала
Расположение каналов : Front: L R
Частота : 48,0 КГц
Битовая глубина : 16 бит
Метод сжатия : С потерями
Размер потока : 119 Мбайт (1%)
Заголовок : Профессиональный многоголосый
Язык : Russian
Default : Нет
Forced : Нет
Аудио #2
Идентификатор : 3
Формат : AC-3
Формат/Информация : Audio Coding 3
Расширение режима : CM (complete main)
Параметр Endianness формата : Big
Идентификатор кодека : A_AC3
Продолжительность : 1 ч. 26 м.
Вид битрейта : Постоянный
Битрейт : 192 Кбит/сек
Каналы : 2 канала
Расположение каналов : Front: L R
Частота : 48,0 КГц
Битовая глубина : 16 бит
Метод сжатия : С потерями
Размер потока : 119 Мбайт (1%)
Заголовок : Профессиональный двухголосый
Язык : Russian
Default : Нет
Forced : Нет
Аудио #3
Идентификатор : 4
Формат : AC-3
Формат/Информация : Audio Coding 3
Расширение режима : CM (complete main)
Параметр Endianness формата : Big
Идентификатор кодека : A_AC3
Продолжительность : 1 ч. 26 м.
Вид битрейта : Постоянный
Битрейт : 192 Кбит/сек
Каналы : 2 канала
Расположение каналов : Front: L R
Частота : 48,0 КГц
Битовая глубина : 16 бит
Метод сжатия : С потерями
Размер потока : 119 Мбайт (1%)
Заголовок : Авторский одноголосый, Санаев
Язык : Russian
Default : Нет
Forced : Нет
Аудио #4
Идентификатор : 5
Формат : AC-3
Формат/Информация : Audio Coding 3
Расширение режима : CM (complete main)
Параметр Endianness формата : Big
Идентификатор кодека : A_AC3
Продолжительность : 1 ч. 26 м.
Вид битрейта : Постоянный
Битрейт : 192 Кбит/сек
Каналы : 2 канала
Расположение каналов : Front: L R
Частота : 48,0 КГц
Битовая глубина : 16 бит
Метод сжатия : С потерями
Размер потока : 119 Мбайт (1%)
Заголовок : Авторский одноголосый, Визгунов
Язык : Russian
Default : Нет
Forced : Нет
Аудио #5
Идентификатор : 6
Формат : DTS
Формат/Информация : Digital Theater Systems
Профиль формата : MA / Core
Режим : 16
Параметр Endianness формата : Big
Идентификатор кодека : A_DTS
Продолжительность : 1 ч. 26 м.
Вид битрейта : Переменный
Битрейт : Неизвестно / 1509 Кбит/сек
Каналы : 2 канала
Расположение каналов : Front: L R
Частота : 48,0 КГц
Битовая глубина : 24 бит
Метод сжатия : Без потерь / Lossy
Заголовок : Оригинал
Язык : English
Default : Да
Forced : Нет
Меню
00:00:00.000 : :Chapter 01
00:05:55.355 : :Chapter 02
00:14:10.015 : :Chapter 03
00:22:36.229 : :Chapter 04
00:32:31.240 : :Chapter 05
00:41:40.789 : :Chapter 06
00:49:21.208 : :Chapter 07
00:57:02.293 : :Chapter 08
01:01:39.570 : :Chapter 09
01:08:44.954 : :Chapter 10
01:14:38.474 : :Chapter 11
01:20:54.599 : :Chapter 12
01:26:46.993 : :Chapter 13

Скриншоты

Скачать

Скачать торрент!

Как скачивать? · Что такое торрент? · Рейтинг и ограничения

Сайт не распространяет и не хранит электронные версии произведений, а лишь предоставляет доступ к создаваемому пользователями каталогу ссылок на торрент-файлы, которые содержат только списки хеш-сумм

[Профиль] [ЛС]
Показать сообщения:    
Ответить на тему

Текущее время: Сегодня 20:21

Часовой пояс: GMT + 4



Вы не можете начинать темы
Вы не можете отвечать на сообщения
Вы не можете редактировать свои сообщения
Вы не можете удалять свои сообщения
Вы не можете голосовать в опросах
Вы не можете прикреплять файлы к сообщениям
Вы не можете скачивать файлы