Шевели ластами! / Sammy's avonturen: De geheime doorgang (Бен Стассен / Ben Stassen) [2010, мультфильм, приключения, семейный, BDRip] [Полная версия] Dub

Ответить на тему
 
Автор Сообщение

user ®

Стаж: 13 лет

Сообщений: 15041

Пост Пост: #1 от 04-Сен-2013 14:25

[Цитировать]

Шевели ластами! / Sammy's avonturen: De geheime doorgang- Страна: Бельгия
Жанр: мультфильм, приключения, семейный
Год выпуска: 2010
Продолжительность: 01:25:33
Перевод: Профессиональный (полное дублирование)
Субтитры: Нет-Режиссер: Бен Стассен / Ben Stassen-Роли озвучивали: Мелани Гриффит (Snow, озвучка), Изабель Фурман (Hatchling Shelly, озвучка), Юрий Ловенталь (Sammy), Энтони Андерсон (Ray, озвучка), Джемма Артертон (Shelley (voice: UK Version), озвучка), Сидни Хоуп Баннер (Loggerhead Turtle, озвучка), Эд Бегли мл. (GreenPeace Worker, озвучка), Бен Бишоп (VW Driver / Male Hatchling #1 / Male Hatchling #2 / Ollie / Loggerhead Turtle 1 / Loggerhead Turtle 5 / Loggerhead Turtle 7 / Crowd / Fisherman #1 / Police #1 / Large Seal / Green Turtle / Old Male Turtle / Ben (voice: UK Version)), Кристин Бликли (Sandra (voice: UK Version)), Джулия Бёкер (Baby Buddha (voice: UK Version)), Даррен Капоцци (Robbie, озвучка), Пэт Кэрролл (Old Female Turtle, озвучка)-Роли дублировали: Максим Аверин, Тимур Родригез-Описание: Для маленькой черепашки подводный мир - самое безопасное место. Здесь акулы, пираньи, змеи, а на берегу поджидают люди. И наш маленький Сэмми хочет узнать весь мир, от полярных льдов до субтропиков. Путешествие продлится ровно полвека, начиная с 1959 года, за это время даже климат успеет измениться.-Доп. информация: BDRemux 1920x1080 (16/9) сделан с Blu-Ray диска из состава Combo Pack из коллекции DFCbit.
Отдельное, большое спасибо xfiles за полную пересборку русской звуковой дорожки, для этой версии мультфильма и изготовление русских субтитров на вырезанные в российском прокате эпизоды.-Рейтинг:

MPAA: [PG] - Рекомендуется присутствие родителей-Сборы в России: $2 459 709
Сборы в мире: $72 100 000
Мировая премьера: 4 августа 2010
Релиз на DVD: 14 октября 2010,«CP-Digital»-Релиз: -Семпл-Качество: BDRip [Sammys.Adventures.2010.BDRemux.1080p.dfcbit]
Формат: AVI
Видео: 656x368 (1.78:1), 23.976 fps, XviD build 65 ~1080 kbps avg, 0.19 bit/pixel
Аудио: 48 kHz, MPEG Layer 3, 2 ch, ~128.00 kbps avg
Субтитры: Русские (Встроенные, на не переведенне места)

MI

Format/Info : Audio Video InterleaveFile size : 745 MiBDuration : 1h 25mnOverall bit rate : 1 218 KbpsWriting application : VirtualDubMod 1.5.10.3 | www.virtualdub-fr.org || (build 2550/release)Writing library : VirtualDubMod build 2550/release
VideoID : 0Format : MPEG-4 VisualFormat profile : Advanced Simple@L5Format settings, BVOP : 2Format settings, QPel : NoFormat settings, GMC : No warppointsFormat settings, Matrix : CustomCodec ID : XVIDCodec ID/Hint : XviDDuration : 1h 25mnBit rate : 1 081 KbpsWidth : 656 pixelsHeight : 368 pixelsDisplay aspect ratio : 16:9Frame rate : 23.976 fpsColor space : YUVChroma subsampling : 4:2:0Bit depth : 8 bitsScan type : ProgressiveCompression mode : LossyBits/(Pixel*Frame) : 0.187Stream size : 661 MiB (89%)Writing library : XviD 65
AudioID : 1Format : MPEG AudioFormat version : Version 1Format profile : Layer 3Codec ID : 55Codec ID/Hint : MP3Duration : 1h 25mnBit rate mode : ConstantBit rate : 128 KbpsChannel(s) : 2 channelsSampling rate : 48.0 KHzCompression mode : LossyStream size : 78.3 MiB (11%)Alignment : Aligned on interleavesInterleave, duration : 42 ms (1.00 video frame)Interleave, preload duration : 504 msWriting library : LAME3.99rEncoding settings : -m s -V 4 -q 2 -lowpass 17 -b 128
-
Скачать

Скачать торрент! Шевели ластами! / Sammy's avonturen: De geheime doorgang (Бен Стассен / Ben Stassen) [2010, мультфильм, приключения, семейный, BDRip] [Полная версия] Dub

Как скачивать? · Что такое торрент? · Рейтинг и ограничения

Сайт не распространяет и не хранит электронные версии произведений, а лишь предоставляет доступ к создаваемому пользователями каталогу ссылок на торрент-файлы, которые содержат только списки хеш-сумм

[Профиль] [ЛС]
Показать сообщения:    
Ответить на тему

Текущее время: Сегодня 19:45

Часовой пояс: GMT + 4



Вы не можете начинать темы
Вы не можете отвечать на сообщения
Вы не можете редактировать свои сообщения
Вы не можете удалять свои сообщения
Вы не можете голосовать в опросах
Вы не можете прикреплять файлы к сообщениям
Вы не можете скачивать файлы