Клеймо позора / Daag (Амия Чакрабарти / Amiya Chakrabarty) [1952, Индия, Драма, мелодрама, DVDRip] VO (Nastia) + Sub Rus

Ответить на тему
 
Автор Сообщение

user ®

Стаж: 12 лет

Сообщений: 15125

Пост Пост: #1 от 04-Сен-2013 14:25

[Цитировать]

Клеймо позора / Daag
Страна: Индия, Bombay Talkies Studios, Mars & Movies Productions
Жанр: Драма, мелодрама
Год выпуска: 1952
Продолжительность: 02:17:39
Перевод: Одноголосый закадровый (Nastia)
Cубтитры: русские
Оригинальная аудиодорожка: нет
Режиссер: Амия Чакрабарти / Amiya Chakrabarty
В ролях: Дилип Кумар, Нимми, Уша Киран, Лалита Павар, Канхайялал, Джавахар Каул, Лила Мишра, Чандрашекхар, Кришнакант, Лаксман Рао
Описание: Шанкар живет со своей овдовевшей матерью и зарабатывает на жизнь, создавая фигурки. Одна беда... Шанкар чрезмерно увлекается алкоголем. Ему очень нравится живущая так же бедно, как и он, Парвати. Неожиданно на голову сводного брата Парвати, Джагата Нараяна, сваливается богатство. Теперь Парвати - богатая невеста. А Шанкар продолжает пить день и ночь, и его не может остановить никто и ничто: ни плач матери, ни мольбы Паро. Он все до пайсы выносит из дома и закладывает дом и землю. Но однажды все меняется. Чтобы отдать деньги ростовщику, Шанкар уходит на заработки в город...
Большое спасибо:
larisa_k за предоставленный озвучку и за исходник.
innnna & jyoti за перевод и редакции субтитров
Nastia за озвучку фильма
Рип и сведение звука: pca1962
Качество видео: DVDRip
Формат видео: AVI
Видео: DivX, 640x480, 23.97 fps, 2067 kbps
Аудио: AC3, 48 kHz, 2.0 (stereo), 192 kbps
Формат субтитров: softsub (SRT)

MediaInfo

=== Общие ===
Полное имя : Kleymo.Pozora.1952.DVDRip.DivX.pca1962.avi
Формат : AVI
Описание формата : Audio Video Interleave
Профиль формата : OpenDML
Размер файла : 2.18 Гб
Длительность : 2ч 17мин
Общий битрейт : 2 271 кбит/сек
Програмное обеспечение : VirtualDubMod 1.5.10.3 | www.virtualdub-fr.org || (build 2550/release)
Кодирующая библиотека : VirtualDubMod build 2550/release
=== Видео ===
ID (Идентификатор) : 0
Формат : MPEG-4 Visual
Профиль формата : Advanced Simple@L5
Параметр 'BVOP' : 2
Параметр 'QPel' : Нет
Параметр 'GMC' : No warppoints
Параметр 'Matrix' : Default (MPEG)
Идентификатор кодека : DX50
Подпись кодека : DivX 5
Длительность : 2ч 17мин
Битрейт : 2 067 кбит/сек
Ширина кадра : 640 пикселей
Высота кадра : 480 пикселей
Соотношение сторон : 4:3
Частота кадров : 23.976 кадров/сек
Цветовое пространство : YUV
Субдискретизация насыщенности : 4:2:0
Глубина (разрядность) : 8 bits
Тип развертки : Прогрессивная
Режим сжатия : С потерями
Бит/(пиксель*кадр) : 0.281
Размер потока : 1.99 Гб (91%)
Кодирующая библиотека : XviD 1.2.1 (UTC 2008-12-04)
=== Аудио ===
ID (Идентификатор) : 1
Формат : AC-3
Описание формата : Audio Coding 3
Mode extension : CM (complete main)
Идентификатор кодека : 2000
Длительность : 2ч 17мин
Тип битрейта : Постоянный
Битрейт : 192 кбит/сек
Канал(ы) : 2 каналов
Расположение каналов : Front: L R
Частота дискретизации : 48.0 кГц
Глубина (разрядность) : 16 bits
Режим сжатия : С потерями
Размер потока : 189 Мб (8%)
Расположение потока : Split accross interleaves
Период чередования : 42 мс (1.00 video frame)
Предварительная загрузка : 500 мс

Скриншот c названием фильма

Скачать

Скачать торрент! Клеймо позора / Daag (Амия Чакрабарти / Amiya Chakrabarty) [1952, Индия, Драма, мелодрама, DVDRip] VO (Nastia) + Sub Rus

Как скачивать? · Что такое торрент? · Рейтинг и ограничения

Сайт не распространяет и не хранит электронные версии произведений, а лишь предоставляет доступ к создаваемому пользователями каталогу ссылок на торрент-файлы, которые содержат только списки хеш-сумм

[Профиль] [ЛС]
Показать сообщения:    
Ответить на тему

Текущее время: Сегодня 00:59

Часовой пояс: GMT + 4



Вы не можете начинать темы
Вы не можете отвечать на сообщения
Вы не можете редактировать свои сообщения
Вы не можете удалять свои сообщения
Вы не можете голосовать в опросах
Вы не можете прикреплять файлы к сообщениям
Вы не можете скачивать файлы