Эмпайр Стэйт / Empire State (Дито Монтиель / Dito Montiel) [2013, США, боевик, драма, BDRip 720p] DVO + Original (Eng) + Sub (Eng)

Ответить на тему
 
Автор Сообщение

user ®

Стаж: 7 лет 7 месяцев

Сообщений: 20008

Пост Пост: #1 от 04-Сен-2013 11:15

[Цитировать]

Эмпайр Стэйт / Empire State«Based on a true story»- Страна: США
Студия: Grosvenor Park Media, Swift Street Productions
Жанр: боевик, драма
Год выпуска: 2013
Продолжительность: 01:34:20-Перевод: Любительский (двухголосый закадровый)
Cубтитры: английские
Оригинальная аудиодорожка: английский-Режиссер: Дито Монтиель / Dito Montiel
В ролях: Лиам Хемсворт, Дуэйн Джонсон, Эмма Робертс, Никки Рид, Шеней Граймс, Майкл Ангарано, Джерри Феррара, Крис Диамантополос, Джеймс Рэнсон, Джина Мантенья-Описание: В этом триллере, основанном на реальных событиях, речь пойдет о произошедшем в 1982 году в Нью-Йорке ограблении инкассаторских бронеавтомобилей, которое на тот момент считалось крупнейшим в США.- -Качество видео: BDRip 720p
Формат видео: MKV
Видео: 1280x536 (2.40:1), 23.976 fps, 5 519 Kbps, 0.336 bit/pixel
Аудио 1: Russian: 48.0 kHz, AC3, 3/2 (L,C,R,l,r) + LFE ch, 448 kb/s (6 ch)
Аудио 2: English: 48.0 kHz, AC3, 3/2 (L,C,R,l,r) + LFE ch, 640 kb/s (6 ch)
Субтитры: English
-

MediaInfo

Format : Matroska
Format version : Version 4 / Version 2
File size : 4.36 GiB
Duration : 1h 34mn
Overall bit rate : 6 621 Kbps
Movie name : Rip by 03nazar03
Encoded date : UTC 2013-09-02 22:53:13
Writing application : mkvmerge v6.1.0 ('Old Devil') built on Mar 4 2013 09:10:42
Writing library : libebml v1.3.0 + libmatroska v1.4.0
Video
ID : 1
Format : AVC
Format/Info : Advanced Video Codec
Format profile : High@L4.1
Format settings, CABAC : Yes
Format settings, ReFrames : 5 frames
Codec ID : V_MPEG4/ISO/AVC
Duration : 1h 34mn
Bit rate : 5 519 Kbps
Width : 1 280 pixels
Height : 536 pixels
Display aspect ratio : 2.40:1
Frame rate : 23.976 fps
Color space : YUV
Chroma subsampling : 4:2:0
Bit depth : 8 bits
Scan type : Progressive
Bits/(Pixel*Frame) : 0.336
Stream size : 3.56 GiB (82%)
Writing library : x264 core 130 r2273 b3065e6
Encoding settings : cabac=1 / ref=5 / deblock=1:-2:-1 / analyse=0x3:0x133 / me=umh / subme=11 / psy=1 / psy_rd=1.00:0.20 / mixed_ref=1 / me_range=32 / chroma_me=1 / trellis=2 / 8x8dct=1 / cqm=0 / deadzone=21,11 / fast_pskip=0 / chroma_qp_offset=-3 / threads=12 / lookahead_threads=2 / sliced_threads=0 / nr=0 / decimate=0 / interlaced=0 / bluray_compat=0 / constrained_intra=0 / bframes=4 / b_pyramid=2 / b_adapt=2 / b_bias=0 / direct=3 / weightb=1 / open_gop=0 / weightp=2 / keyint=250 / keyint_min=23 / scenecut=40 / intra_refresh=0 / rc_lookahead=60 / rc=2pass / mbtree=1 / bitrate=5519 / ratetol=1.0 / qcomp=0.60 / qpmin=0 / qpmax=69 / qpstep=4 / cplxblur=20.0 / qblur=0.5 / ip_ratio=1.40 / aq=1:1.00
Language : English
Default : Yes
Forced : No
Audio #1
ID : 2
Format : AC-3
Format/Info : Audio Coding 3
Mode extension : CM (complete main)
Codec ID : A_AC3
Duration : 1h 34mn
Bit rate mode : Constant
Bit rate : 448 Kbps
Channel(s) : 6 channels
Channel positions : Front: L C R, Side: L R, LFE
Sampling rate : 48.0 KHz
Bit depth : 16 bits
Compression mode : Lossy
Stream size : 302 MiB (7%)
Language : Russian
Default : Yes
Forced : No
Audio #2
ID : 3
Format : AC-3
Format/Info : Audio Coding 3
Mode extension : CM (complete main)
Codec ID : A_AC3
Duration : 1h 34mn
Bit rate mode : Constant
Bit rate : 640 Kbps
Channel(s) : 6 channels
Channel positions : Front: L C R, Side: L R, LFE
Sampling rate : 48.0 KHz
Bit depth : 16 bits
Compression mode : Lossy
Stream size : 432 MiB (10%)
Language : English
Default : No
Forced : No
Text
ID : 4
Format : PGS
Muxing mode : zlib
Codec ID : S_HDMV/PGS
Codec ID/Info : The same subtitle format used on BDs/HD-DVDs
Language : English
Default : Yes
Forced : No
Menu
00:00:00.000 : en:00:00:00.000
00:06:06.157 : en:00:06:06.157
00:13:03.032 : en:00:13:03.032
00:19:22.995 : en:00:19:22.995
00:22:39.775 : en:00:22:39.775
00:27:36.071 : en:00:27:36.071
00:33:38.767 : en:00:33:38.767
00:39:55.018 : en:00:39:55.018
00:46:00.383 : en:00:46:00.383
00:52:26.143 : en:00:52:26.143
00:59:47.375 : en:00:59:47.375
01:06:38.703 : en:01:06:38.703
01:12:29.887 : en:01:12:29.887
01:20:12.808 : en:01:20:12.808
01:25:26.747 : en:01:25:26.747
01:29:23.900 : en:01:29:23.900

Скриншоты

Скачать

Скачать торрент!

Как скачивать? · Что такое торрент? · Рейтинг и ограничения

Сайт не распространяет и не хранит электронные версии произведений, а лишь предоставляет доступ к создаваемому пользователями каталогу ссылок на торрент-файлы, которые содержат только списки хеш-сумм

[Профиль] [ЛС]
Показать сообщения:    
Ответить на тему

Текущее время: Сегодня 00:42

Часовой пояс: GMT + 4



Вы не можете начинать темы
Вы не можете отвечать на сообщения
Вы не можете редактировать свои сообщения
Вы не можете удалять свои сообщения
Вы не можете голосовать в опросах
Вы не можете прикреплять файлы к сообщениям
Вы не можете скачивать файлы