Эмпайр Стэйт / Empire State (Дито Монтиель / Dito Montiel) [2013, Боевик, драма, BDRip-AVC] DVO + Original (Eng) + Sub (eng)

Ответить на тему
 
Автор Сообщение

user ®

Стаж: 7 лет 7 месяцев

Сообщений: 20008

Пост Пост: #1 от 04-Сен-2013 01:50

[Цитировать]

Эмпайр Стэйт / Empire State- Страна: США / 24P Media Group, Emmett/Furla Films, Envision Entertainment Corporation
Жанр: Боевик, драма
Год выпуска: 2013
Продолжительность: 01:34:20-Перевод: Любительский (двухголосый закадровый)
Cубтитры: английские
Формат субтитров: softsub (SRT)
Оригинальная аудиодорожка: английский-Режиссер: Дито Монтиель / Dito Montiel
В ролях: Лиам Хемсворт, Дуэйн Джонсон, Эмма Робертс, Никки Рид, Шеней Граймс, Майкл Ангарано, Джерри Феррара, Крис Диамантополос, Джеймс Рэнсон, Джина Мантенья
Описание: В этом триллере, основанном на реальных событиях, речь пойдет о произошедшем в 1982 году в Нью-Йорке ограблении инкассаторских бронеавтомобилей, которое на тот момент считалось крупнейшим в США.- -Релиз от:
Автор рипа: potroks-Качество видео: BDRip-AVC [Empire.State.2013.1080p.BluRay.AVC.DTS-HD.MA.5.1-PublicHD]
Формат видео: MKV
Видео: х.264, 1032x430 (2,40:1), 23.976 fps, 1314 Кbps, 0.124 bit/pixel
Аудио#1: 48 kHz, AC3 Dolby Digital, 3/2 (L,C,R,l,r) ch, 448.00 kbps | RUS
Аудио#2: 48 kHz, AC3 Dolby Digital, 3/2 (L,C,R,l,r) ch, 448.00 kbps | ENG

MediaInfo

Общее
Уникальный идентификатор : 237201816108331682179841464847226367737 (0xB2736876012C6D918CF854DA2A13EEF9)
Полное имя : Empajr.Stejt.2013.DUAL.BDRip.x264.-HELLYWOOD.mkv
Формат : Matroska
Версия формата : Version 4 / Version 2
Размер файла : 1,46 Гбайт
Продолжительность : 1 ч. 34 м.
Общий поток : 2209 Кбит/сек
Название фильма : HELLYWOOD - rip by potroks
Дата кодирования : UTC 2013-09-03 16:44:55
Программа кодирования : mkvmerge v5.9.0 ('On The Loose') built on Dec 15 2012 16:39:58
Библиотека кодирования : libebml v1.3.0 + libmatroska v1.4.0
Видео
Идентификатор : 1
Формат : AVC
Формат/Информация : Advanced Video Codec
Профиль формата : High@L4.1
Параметр CABAC формата : Да
Параметр ReFrames формата : 10 кадров
Идентификатор кодека : V_MPEG4/ISO/AVC
Продолжительность : 1 ч. 34 м.
Битрейт : 1314 Кбит/сек
Ширина : 1032 пикселя
Высота : 430 пикселей
Соотношение сторон : 2,40:1
Режим частоты кадров : Постоянный
Частота кадров : 23,976 кадра/сек
Цветовое пространство : YUV
Субдискретизация насыщенности : 4:2:0
Битовая глубина : 8 бит
Тип развёртки : Прогрессивная
Бит/(Пиксели*Кадры) : 0.124
Размер потока : 856 Мбайт (57%)
Заголовок : Empire State
Библиотека кодирования : x264 core 130 r2273 b3065e6
Настройки программы : cabac=1 / ref=10 / deblock=1:-2:-2 / analyse=0x3:0x133 / me=umh / subme=11 / psy=1 / psy_rd=1.03:0.00 / mixed_ref=1 / me_range=48 / chroma_me=1 / trellis=2 / 8x8dct=1 / cqm=0 / deadzone=21,11 / fast_pskip=0 / chroma_qp_offset=-2 / threads=8 / lookahead_threads=2 / sliced_threads=0 / nr=0 / decimate=1 / interlaced=0 / bluray_compat=0 / constrained_intra=0 / bframes=11 / b_pyramid=2 / b_adapt=2 / b_bias=0 / direct=3 / weightb=1 / open_gop=0 / weightp=2 / keyint=250 / keyint_min=23 / scenecut=40 / intra_refresh=0 / rc_lookahead=60 / rc=2pass / mbtree=0 / bitrate=1314 / ratetol=1.0 / qcomp=0.70 / qpmin=0 / qpmax=69 / qpstep=4 / cplxblur=20.0 / qblur=0.5 / vbv_maxrate=20000 / vbv_bufsize=20000 / nal_hrd=none / ip_ratio=1.35 / pb_ratio=1.25 / aq=2:0.70
Язык : English
Default : Да
Forced : Нет
Аудио #1
Идентификатор : 2
Формат : AC-3
Формат/Информация : Audio Coding 3
Расширение режима : CM (complete main)
Параметр Endianness формата : Big
Идентификатор кодека : A_AC3
Продолжительность : 1 ч. 34 м.
Вид битрейта : Постоянный
Битрейт : 448 Кбит/сек
Каналы : 6 каналов
Расположение каналов : Front: L C R, Side: L R, LFE
Частота : 48,0 КГц
Битовая глубина : 16 бит
Метод сжатия : С потерями
Размер потока : 302 Мбайт (20%)
Заголовок : DVO | DD 5.1 @ 448 kbps
Язык : Russian
Default : Да
Forced : Да
Аудио #2
Идентификатор : 3
Формат : AC-3
Формат/Информация : Audio Coding 3
Расширение режима : CM (complete main)
Параметр Endianness формата : Big
Идентификатор кодека : A_AC3
Продолжительность : 1 ч. 34 м.
Вид битрейта : Постоянный
Битрейт : 448 Кбит/сек
Каналы : 6 каналов
Расположение каналов : Front: L C R, Side: L R, LFE
Частота : 48,0 КГц
Битовая глубина : 16 бит
Метод сжатия : С потерями
Размер потока : 302 Мбайт (20%)
Заголовок : Original | DD 5.1 @ 448 kbps
Язык : English
Default : Нет
Forced : Нет
Текст
Идентификатор : 4
Формат : UTF-8
Идентификатор кодека : S_TEXT/UTF8
Идентификатор кодека/Информация : UTF-8 Plain Text
Язык : English
Default : Нет
Forced : Нет

log@x.264

x264 [info]: frame I:1017 Avg QP:16.49 size: 56418
x264 [info]: frame P:30233 Avg QP:19.43 size: 13977
x264 [info]: frame B:104466 Avg QP:21.51 size: 4282
x264 [info]: consecutive B-frames: 2.1% 3.5% 9.8% 19.9% 19.1% 34.2% 5.0% 2.3% 1.2% 0.8% 0.6% 1.2%
x264 [info]: mb I I16..4: 8.2% 67.6% 24.2%
x264 [info]: mb P I16..4: 0.8% 5.4% 1.1% P16..4: 34.2% 35.0% 10.8% 1.7% 0.2% skip:10.9%
x264 [info]: mb B I16..4: 0.1% 0.4% 0.1% B16..8: 33.2% 16.1% 2.2% direct: 3.1% skip:44.9% L0:41.1% L1:47.1% BI:11.8%
x264 [info]: 8x8 transform intra:72.1% inter:63.3%
x264 [info]: direct mvs spatial:97.3% temporal:2.7%
x264 [info]: coded y,uvDC,uvAC intra: 82.1% 83.0% 60.5% inter: 13.8% 12.4% 2.3%
x264 [info]: i16 v,h,dc,p: 25% 16% 9% 50%
x264 [info]: i8 v,h,dc,ddl,ddr,vr,hd,vl,hu: 10% 9% 4% 10% 14% 14% 13% 13% 13%
x264 [info]: i4 v,h,dc,ddl,ddr,vr,hd,vl,hu: 12% 11% 4% 9% 15% 14% 13% 11% 12%
x264 [info]: i8c dc,h,v,p: 35% 25% 21% 19%
x264 [info]: Weighted P-Frames: Y:2.6% UV:1.2%
x264 [info]: ref P L0: 51.8% 10.7% 16.1% 5.7% 4.4% 3.4% 2.8% 1.6% 1.5% 1.7% 0.3% 0.0%
x264 [info]: ref B L0: 77.8% 10.2% 4.7% 2.4% 1.7% 1.4% 1.1% 0.4% 0.3%
x264 [info]: ref B L1: 92.6% 7.4%
x264 [info]: kb/s:1310.54
x264 [total]: encoded 135716 frames, 8.61 fps, 1310.54 kb/s
TIME
------------------------------
Общее время кодирования: 5 hour 22 min 48 sec
Файл получился на: 885.29 mb
Скачать

Скачать торрент!

Как скачивать? · Что такое торрент? · Рейтинг и ограничения

Сайт не распространяет и не хранит электронные версии произведений, а лишь предоставляет доступ к создаваемому пользователями каталогу ссылок на торрент-файлы, которые содержат только списки хеш-сумм

[Профиль] [ЛС]
Показать сообщения:    
Ответить на тему

Текущее время: Сегодня 12:14

Часовой пояс: GMT + 4



Вы не можете начинать темы
Вы не можете отвечать на сообщения
Вы не можете редактировать свои сообщения
Вы не можете удалять свои сообщения
Вы не можете голосовать в опросах
Вы не можете прикреплять файлы к сообщениям
Вы не можете скачивать файлы