Дьяволица / She-Devil (Сьюзан Сайделман / Susan Seidelman) [1989, США, Комедия, WEB-DL 720p] AVO (Дьяков) + DVO + MVO + Original Eng

Ответить на тему
 
Автор Сообщение

user ®

Стаж: 7 лет 7 месяцев

Сообщений: 20008

Пост Пост: #1 от 03-Сен-2013 22:40

[Цитировать]

Дьяволица / She-Devil
Страна: США
Студия: A Seidelman/Brett Production
Жанр: Комедия
Год выпуска: 1989
Продолжительность: 01:39:23
Перевод 1: Авторский (одноголосый закадровый) Сергей Дьяков
Перевод 2: Профессиональный (двухголосый закадровый) - НТВ+
Перевод 3: Профессиональный (многоголосый закадровый) - РТР
Cубтитры: нет
Оригинальная аудиодорожка: английский
Режиссер: Сьюзан Сайделман / Susan Seidelman
В ролях: Мерил Стрип /Meryl Streep/, Роузэнн Барр /Roseanne Barr/, Эд Бегли-младший /Ed Begley, Jr./, Сильвия Майлз /Sylvia Miles/, Линда Хант /Linda Hunt/, Элизабет Питерс /Elizabeth Peters/
Описание: Экранизация романа Фэй Уэлдон, снятая в стиле гротеска и черного юмора. Малопривлекательная домохозяйка (Барр) мстит бросившему ее мужу и разлучнице, известной писательнице любовных романов (Стрип). Сама Барр Ничего собой не представляет, но Стрип в роли самовлюбленной и купающейся в славе романистки настолько хороша, что фильм можно посмотреть только ради нее. Л: ВИДЕОСЕРВИС. (Иванов М.)
Альтернативное описание: Фильм подойдёт для поднятия настроения. Гомерического хохота не обещаю, но саркастическая улыбка вам обеспечена.
Реалии: муж уходит от жены, родившей ему детей, заботившейся о нём, и соответственно в этой рутине запустившей себя.
Разлучница: популярная писательница женских романов (в США их ещё называли «эротика для домохозяек»), богатая блондинка в розовом, далёкая от всего земного. Беззаботная дама из грёз.
Высмеивается старая как мир дилемма: кого предпочитают джентльмены — красотку с обложки или земную заботливую женщину, грубо говоря, жену или любовницу. С заботливой герой-изменник уже пожил, теперь решил, что его мир спасёт красота.
Но этот господин не учёл двух фактов: во-первых, нет никого опасней, чем обиженная женщина, во-вторых, Люцифер изначально был ангелом.
Всё это действо разыгрывают убедительные актёры, под руководством талантливого режиссёра, и если вы любите дух мэйнстримовских американских комедий 80-х, то фильм вам понравится. Оценка от меня этой комедии высшая, потому что она создаёт оптимистическое настроение
--------------------------------------------------------------------------------
Оператор: Оливер Стэплтон /Oliver Stapleton/
Сценарист: Марк Р. Бернс /Mark R. Burns/, Бэрри Стругатц /Barry Strugatz/
Продюсер: Джонатан Бретт /Jonathan Brett/, Сьюзан Сайделман /Susan Seidelman/
Монтажер: Крэйг МакКэй /Craig McKay/
Композитор: Хауард Шор /Howard Shore/
Художник: Санто Локуасто /Santo Loquasto/
--------------------------------------------------
КИНОПОИСК. RU
РЕЙТИНГ 6.885 оценки: 564
4.9/10 from 8 844 users
--------------------------------------------------
----------------
СЭМПЛ
----------------
Тип релиза: WEB-DL 720p
Контейнер: MKV
Видео: 1280x694; 23.976 fps; ~ 3 838Kbps; 0.180 Bits/Pixel
Аудио 1: Russian - 48 kHz, AC3 Dolby Digital, 2/0 (L,R) ch, ~ 192 kbps - Сергей Дьяков
Аудио 2: Russian - 48 kHz, AC3 Dolby Digital, 2/0 (L,R) ch, ~192 kbps - DVO
Аудио 3: Russian - 48 kHz, AC3 Dolby Digital, 2/0 (L,R) ch, ~192 kbps - MVO
Аудио 4: English - 48 kHz, AC3 Dolby Digital, 2/0 (L,R) ch, ~192 kbps - Original

MediaInfo

General
Complete name : F:\EXCLUZIVE=19\ДЬЯВОЛИЦА.[She-Devil,1989]\She-Devil.1989\She-Devil.1989.720p.WEB-DL.mkv
Format : Matroska
File size : 3.26 GiB
Duration : 1h 39mn
Overall bit rate : 4 699 Kbps
Encoded date : UTC 2013-09-02 13:58:37
Writing application : mkvmerge v3.3.0 ('Language') built on Mar 24 2010 14:59:24
Writing library : libebml v0.8.0 + libmatroska v0.9.0
Video
ID : 1
Format : AVC
Format/Info : Advanced Video Codec
Format profile : High@L3.1
Format settings, CABAC : No
Format settings, ReFrames : 2 frames
Muxing mode : Container profile=Unknown@3.1
Codec ID : V_MPEG4/ISO/AVC
Duration : 1h 39mn
Bit rate : 3 838 Kbps
Width : 1 280 pixels
Height : 694 pixels
Display aspect ratio : 16:9
Frame rate : 23.976 fps
Color space : YUV
Chroma subsampling : 4:2:0
Bit depth : 8 bits
Scan type : Progressive
Bits/(Pixel*Frame) : 0.180
Stream size : 2.66 GiB (82%)
Title : She-Devil.1989.
Language : English
Color primaries : BT.709-5, BT.1361, IEC 61966-2-4, SMPTE RP177
Transfer characteristics : BT.709-5, BT.1361
Matrix coefficients : BT.709-5, BT.1361, IEC 61966-2-4 709, SMPTE RP177
Audio #1
ID : 2
Format : AC-3
Format/Info : Audio Coding 3
Mode extension : CM (complete main)
Codec ID : A_AC3
Duration : 1h 39mn
Bit rate mode : Constant
Bit rate : 192 Kbps
Channel(s) : 2 channels
Channel positions : Front: L R
Sampling rate : 48.0 KHz
Stream size : 137 MiB (4%)
Title : AVO Дьяков @ AC3 192 kbps
Language : Russian
Audio #2
ID : 3
Format : AC-3
Format/Info : Audio Coding 3
Mode extension : CM (complete main)
Codec ID : A_AC3
Duration : 1h 39mn
Bit rate mode : Constant
Bit rate : 192 Kbps
Channel(s) : 2 channels
Channel positions : Front: L R
Sampling rate : 48.0 KHz
Stream size : 137 MiB (4%)
Title : DVO @ AC3 192 kbps
Language : Russian
Audio #3
ID : 4
Format : AC-3
Format/Info : Audio Coding 3
Mode extension : CM (complete main)
Codec ID : A_AC3
Duration : 1h 39mn
Bit rate mode : Constant
Bit rate : 192 Kbps
Channel(s) : 2 channels
Channel positions : Front: L R
Sampling rate : 48.0 KHz
Stream size : 137 MiB (4%)
Title : MVO @ AC3 192 kbps
Language : Russian
Audio #4
ID : 5
Format : AC-3
Format/Info : Audio Coding 3
Mode extension : CM (complete main)
Codec ID : A_AC3
Duration : 1h 39mn
Bit rate mode : Constant
Bit rate : 192 Kbps
Channel(s) : 2 channels
Channel positions : Front: L R
Sampling rate : 48.0 KHz
Stream size : 137 MiB (4%)
Title : Original @ AC3 192 kbps
Language : English
Menu
00:00:00.000 : en:Main Title/Beauty
00:06:27.000 : en:Lust At First Sight
00:14:51.000 : en:A Ruthless Affair
00:20:21.000 : en:Dead Rodent Dinner
00:24:46.000 : en:The Devil Made Her
00:30:42.000 : en:Family Togetherness
00:39:01.000 : en:Trouble in Paradise
00:46:35.000 : en:Incontient Insolence
00:54:54.000 : en:Vesta Rose
01:01:04.000 : en:Collapsing Careers"
01:11:41.000 : en:Incriminating Evidence
01:17:42.000 : en:Laying Down The Law
01:21:26.000 : en:Bye Bye Bobby
01:24:28.000 : en:Judgement Day
01:30:10.000 : en:People Can Change
01:35:14.000 : en:End Credits

Скриншоты

, ,
, ,
, ,
Скачать

Скачать торрент!

Как скачивать? · Что такое торрент? · Рейтинг и ограничения

Сайт не распространяет и не хранит электронные версии произведений, а лишь предоставляет доступ к создаваемому пользователями каталогу ссылок на торрент-файлы, которые содержат только списки хеш-сумм

[Профиль] [ЛС]
Показать сообщения:    
Ответить на тему

Текущее время: Сегодня 12:06

Часовой пояс: GMT + 4



Вы не можете начинать темы
Вы не можете отвечать на сообщения
Вы не можете редактировать свои сообщения
Вы не можете удалять свои сообщения
Вы не можете голосовать в опросах
Вы не можете прикреплять файлы к сообщениям
Вы не можете скачивать файлы