Прекрасные создания / Beautiful Creatures (Ричард ЛаГравенес / Richard LaGravenese) [2013, США, фэнтези, драма, мелодрама, HDRip-AVC] Dub

Ответить на тему
 
Автор Сообщение

user ®

Стаж: 7 лет 7 месяцев

Сообщений: 20008

Пост Пост: #1 от 03-Сен-2013 22:40

[Цитировать]

Прекрасные создания / Beautiful Creatures
«Раскроются тёмные тайны»
Страна: США / Alcon Entertainment, Warner Bros. Entertainment
Жанр: фэнтези, драма, мелодрама
Год выпуска: 2013
Продолжительность: 02:03:44
Перевод: Профессиональный (полное дублирование) Чистый звук
Cубтитры: Нет
Режиссер: Ричард ЛаГравенес / Richard LaGravenese
В ролях: Олден Эйренрайк, Элис Энглерт, Джереми Айронс, Виола Дэвис, Эмми Россам, Томас Манн, Эмма Томпсон, Айлин Эткинс, Марго Мартиндейл, Зоя Дойч, Тиффани Бун, Рэйчел Броснахэн
Описание: Лена Дюкейн отличается от всех, кого когда-либо видел маленький южный город Гатлин, она борется с собой, пытаясь усмирить свою силу и проклятие, веками преследовавшее ее семью. Но даже в разросшихся садах, в мрачных болотах и на разрушенных могильниках позабытого Юга секрет не будет жить вечно.
Итана Уэйта, считающего дни до своего бегства из Гатлина, преследуют сны о прекрасной девушке, которую он никогда не встречал. Когда Лена приезжает жить в дом на самой старой и самой жуткой из всех плантаций города, Итан безоговорочно влюбляется в нее и целенаправленно старается раскрыть секрет их удивительной связи.
|
Релиз:
Автор рипа: S.T.A.L.K.E.R.2 (aka Stalker oK)
Сэмпл: http://multi-up.com/900020
Качество: HDRip-AVC
Формат: MKV
Видео кодек: AVC
Аудио кодек: AC3
Видео: 1423 Кбит/сек, 984*410 (2,40:1), в 23,976 кадр/сек, AVC
Аудио: Russian, 192 Кбит/сек, 48,0 КГц, 16 бит, 2 канала(ов), AC-3

MediaInfo

Общее
Уникальный идентификатор : 188125174454309260384849894474335896162 (0x8D879736A360BA54BF7EB8A6F4DBC262)
Полное имя : H:\Прекрасные создания\Prekrasnye_sozdanija_2013_HDRip_AVC_Dub__stalkerok.mkv
Формат : Matroska
Размер файла : 1,39 Гбайт
Продолжительность : 2 ч. 3 м.
Общий поток : 1612 Кбит/сек
Название фильма : Beautiful Creatures 2013 (Youtracker) (Rip by Stalker oK)
Дата кодирования : UTC 2013-09-03 16:49:36
Программа кодирования : mkvmerge v6.2.0 ('Promised Land') built on Apr 28 2013 12:22:01
Библиотека кодирования : libebml v1.3.0 + libmatroska v1.4.0
Видео
Идентификатор : 1
Формат : AVC
Формат/Информация : Advanced Video Codec
Профиль формата : High@L4.1
Параметр CABAC формата : Да
Параметр ReFrames формата : 10 кадры
Идентификатор кодека : V_MPEG4/ISO/AVC
Продолжительность : 2 ч. 3 м.
Битрейт : 1423 Кбит/сек
Ширина : 984 пикс.
Высота : 410 пикс.
Соотношение сторон : 2,40:1
Частота кадров : 23,976 кадр/сек
Цветовое пространство : YUV
Подвыборка цветности : 4:2:0
Битовая глубина : 8 бит
Тип развёртки : Прогрессивная
Бит/(Пиксели*Кадры) : 0.147
Размер потока : 1,20 Гбайт (86%)
Библиотека кодирования : x264 core 130 r2273 b3065e6
Настройки программы : cabac=1 / ref=10 / deblock=1:-2:-1 / analyse=0x3:0x133 / me=umh / subme=11 / psy=1 / psy_rd=1.02:0.10 / mixed_ref=1 / me_range=32 / chroma_me=1 / trellis=2 / 8x8dct=1 / cqm=0 / deadzone=21,11 / fast_pskip=0 / chroma_qp_offset=-3 / threads=6 / lookahead_threads=1 / sliced_threads=0 / nr=0 / decimate=0 / interlaced=0 / bluray_compat=0 / constrained_intra=0 / bframes=11 / b_pyramid=2 / b_adapt=2 / b_bias=0 / direct=3 / weightb=1 / open_gop=0 / weightp=2 / keyint=240 / keyint_min=23 / scenecut=40 / intra_refresh=0 / rc_lookahead=60 / rc=2pass / mbtree=1 / bitrate=1423 / ratetol=2.0 / qcomp=0.70 / qpmin=0 / qpmax=69 / qpstep=4 / cplxblur=20.0 / qblur=0.5 / vbv_maxrate=17000 / vbv_bufsize=20000 / nal_hrd=none / ip_ratio=1.40 / aq=1:0.90
Аудио
Идентификатор : 2
Формат : AC-3
Формат/Информация : Audio Coding 3
Расширение режима : CM (complete main)
Идентификатор кодека : A_AC3
Продолжительность : 2 ч. 3 м.
Вид битрейта : Постоянный
Битрейт : 192 Кбит/сек
Канал(ы) : 2 канала(ов)
Расположение каналов : Front: L R
Частота : 48,0 КГц
Битовая глубина : 16 бит
Метод сжатия : С потерями
Размер потока : 170 Мбайт (12%)
Заголовок : Dub
Язык : Russian

Скриншоты

Скачать

Скачать торрент!

Как скачивать? · Что такое торрент? · Рейтинг и ограничения

Сайт не распространяет и не хранит электронные версии произведений, а лишь предоставляет доступ к создаваемому пользователями каталогу ссылок на торрент-файлы, которые содержат только списки хеш-сумм

[Профиль] [ЛС]
Показать сообщения:    
Ответить на тему

Текущее время: Сегодня 03:53

Часовой пояс: GMT + 4



Вы не можете начинать темы
Вы не можете отвечать на сообщения
Вы не можете редактировать свои сообщения
Вы не можете удалять свои сообщения
Вы не можете голосовать в опросах
Вы не можете прикреплять файлы к сообщениям
Вы не можете скачивать файлы