Одним меньше / Dead Man Down (Нильс Арден Оплев / Niels Arden Oplev) [2013, США, Триллер, драма, криминал, боевик, BDRip] AVO (Гаврилов)

Ответить на тему
 
Автор Сообщение

user ®

Стаж: 7 лет 7 месяцев

Сообщений: 20008

Пост Пост: #1 от 03-Сен-2013 16:20

[Цитировать]

Одним меньше / Dead Man Down
«Время собирать камни»
- Год выпуска: 2013
Выпущено: США / Original Film, IM Global
Жанр: триллер, драма, криминал, боевик
Продолжительность: 01:57:47
Перевод: Авторский (одноголосый закадровый) Андрей Гаврилов
Cубтитры: нет-Режиссер:
Нильс Арден Оплев / Niels Arden Oplev-В ролях:
Колин Фаррелл, Нуми Рапас, Терренс Ховард, Доминик Купер, Изабель Юппер, Луис Да Силва мл., Стью Беннетт, Фрэнки Джи, Деклан Мулвей, Джон Ченатьемпо-Описание:
История человека по имени Виктор, он правая рука лидера преступной группировки из Нью-Йорка. Виктор неспроста оказался в криминальном синдикате: мафия уничтожила его семью, поэтому он хочет отомстить. Об этом узнает загадочная Беатрис, соблазняет его и шантажирует. Однако у героев только одна цель в жизни — месть. И она приведет их к кровавой развязке.-| IMDB | КиноПоиск | Сэмпл |-Качество: BDRip [Dead.Man.Down.2013.1080p.BluRay.AVC.DTS-HD.MA5.1-PublicHD]
Формат: AVI
Видео: 720x304 (2.37:1), 23.976 fps, XviD build 73 ~1379 kbps avg, 0.26 bit/pixel
Аудио: 48 kHz, AC3 Dolby Digital, 3/2 (L,C,R,l,r) + LFE ch, ~384.00 kbps avg
-

Скриншоты

MediaInfo

General
Complete name                            : D:\Odnim_menshe_2013_BDRip_AVO_by_Dalemake.avi
Format                                   : AVI
Format/Info                              : Audio Video Interleave
File size                                : 1.46 GiB
Duration                                 : 1h 57mn
Overall bit rate                         : 1 773 Kbps
Writing application                      : VirtualDubMod 1.5.10.3 | www.virtualdub-fr.org || (build 2550/release)
Writing library                          : VirtualDubMod build 2550/release
Video
ID                                       : 0
Format                                   : MPEG-4 Visual
Format profile                           : Advanced Simple@L5
Format settings, BVOP                    : 1
Format settings, QPel                    : No
Format settings, GMC                     : No warppoints
Format settings, Matrix                  : Custom
Codec ID                                 : XVID
Codec ID/Hint                            : XviD
Duration                                 : 1h 57mn
Bit rate                                 : 1 379 Kbps
Width                                    : 720 pixels
Height                                   : 304 pixels
Display aspect ratio                     : 2.35:1
Frame rate                               : 23.976 fps
Color space                              : YUV
Chroma subsampling                       : 4:2:0
Bit depth                                : 8 bits
Scan type                                : Progressive
Compression mode                         : Lossy
Bits/(Pixel*Frame)                       : 0.263
Stream size                              : 1.13 GiB (78%)
Writing library                          : XviD 73
Audio
ID                                       : 1
Format                                   : AC-3
Format/Info                              : Audio Coding 3
Mode extension                           : CM (complete main)
Format settings, Endianness              : Big
Codec ID                                 : 2000
Duration                                 : 1h 57mn
Bit rate mode                            : Constant
Bit rate                                 : 384 Kbps
Channel(s)                               : 6 channels
Channel positions                        : Front: L C R, Side: L R, LFE
Sampling rate                            : 48.0 KHz
Bit depth                                : 16 bits
Compression mode                         : Lossy
Stream size                              : 324 MiB (22%)
Alignment                                : Split accross interleaves
Interleave, duration                     : 42 ms (1.00 video frame)
Interleave, preload duration             : 500 ms

Благодарности

Перевод Андрея Гаврилова доступен благодаря пользователям HDTracker, спонсоры: eyrobot, KpucTo161, Pain_70, kinobbk, karantin66, SavineX, Schmulke, nimph, Xerman13, rydanes, Brown15, feldeger, dunhill200, lexal, Chistobaev, foxlight, olegsoleg, Hattori Hanzo, Loki, milocerd0v, mamachucha66, Role, Vimann, zork, Letyoha3, ZeRoNe, timur, shtift, sawyer4, Guyver, fly32, -Джосс-, chef&chef, pupok-, LAVR, Диммон, therox, vadamk, John Ryder, maximus1099, _MyxAmoP_, Rolly Tyler, GaryH, ultrajeka, denis_mgn_1987, BIMMER.
-
Скачать

Скачать торрент!

Как скачивать? · Что такое торрент? · Рейтинг и ограничения

Сайт не распространяет и не хранит электронные версии произведений, а лишь предоставляет доступ к создаваемому пользователями каталогу ссылок на торрент-файлы, которые содержат только списки хеш-сумм

[Профиль] [ЛС]
Показать сообщения:    
Ответить на тему

Текущее время: Сегодня 14:11

Часовой пояс: GMT + 4



Вы не можете начинать темы
Вы не можете отвечать на сообщения
Вы не можете редактировать свои сообщения
Вы не можете удалять свои сообщения
Вы не можете голосовать в опросах
Вы не можете прикреплять файлы к сообщениям
Вы не можете скачивать файлы