Рапунцель: Запутанная история / Tangled (Натан Грено, Байрон Ховард / Nathan Greno, Byron Howard) [2010, США, мюзикл, комедия, семейный, мультфильм, BDRip] [Локализованный видеоряд] Dub + DVO (Кубик в кубе) + AVO (Сербин) + Original (Eng) + Subs

Ответить на тему
 
Автор Сообщение

user ®

Стаж: 13 лет

Сообщений: 15041

Пост Пост: #1 от 03-Сен-2013 13:10

[Цитировать]

РапунцельЗапутанная история Год выпуска: 2010
Страна: США
Жанр: мюзикл, комедия, семейный, мультфильм
Продолжительность: 01:40:57
Перевод 1: профессиональный полное дублирование Blu-ray CEE
Перевод 2: профессиональный двухголосый, закадровый Кубик в кубе (отдельно)
Перевод 3: авторский одноголосый, закадровый Ю. Сербин (отдельно)
Оригинал: английский (отдельно)
Cубтитры: русские, английские внешние, softsub (SRT)-Режиссёр: Натан Грено, Байрон Ховард / Nathan Greno, Byron Howard-Роли озвучивали:
Мэнди Мур (Виктория Дайнеко), Закари Левай (Григорий Антипенко, Андрей Бирин), Донна Мерфи (Мария Кац), Рон Перлман (Арман Хачатрян), М. К. Гейни (Денис Некрасов), Джеффри Тэмбор (Антон Эльдаров), Брэд Гэррет (Владимир Майсурадзе), Ричард Кил (Антон Батырев), Нэйтан Грено, Байрон Ховард, Тим Мертенс, Майкл Белл, Делани Роуз Стейн, Пол Ф. Томпкинс, Джун Кристофер, Рой Конли-Описание:
Обаятельный разбойник Флинн путешествует по жизни с легкостью, лишь потому, что он красив, болтлив и удачлив. И казалось, фортуна всегда на его стороне, пока однажды он не выбирает высокую башню в густой чаще леса в качестве «спокойного» убежища, где Флинн оказывается связанным по рукам и ногам волосами юной красавицы по имени Рапунцель.-
  • Мультфильм создан по мотивам сказки братьев Гримм «Рапунцель» (Rapunzel).
  • «Рапунцель: Запутанная история» — это 50-й полнометражный анимационный фильм студии Walt Disney Pictures.Оба режиссёра — и Байрон Ховард, и Нэйтан Грено — мечтали стать аниматорами с тех пор, как посетили анимационную студию Disney в парке развлечений Disney World. Перед тем, как получить работу в студии, Ховард работал экскурсоводом и часами наблюдал с улицы через стекло за трудом аниматоров.
  • Дочь старшего аниматора Глена Кини, художница Клэр Кини, продумала и нарисовала фрески на стенах башни Рапунцель. Разрабатывая персонажа Рапунцель, Глен наделил её некоторыми чертами своей дочери, в том числе упрямым нравом и склонностью расписывать стены.
  • Длина золотистых волос Рапунцель — 70 футов (больше 21 метра), в них больше 100 000 отдельных локонов.Чтобы передать на экране движение волос, была разработана специальная программа Dynamic Wires. Раньше никому в анимации не доводилось рисовать такое количество волос, и ни одна главная героиня в истории кино не носила на голове такую роскошную причёску.
  • Захватывающая кульминационная сцена фильма разворачивается на фоне горизонта, заполненного горящими фонарями. В каждом фонаре горит отдельный нарисованный огонь, состоящий из 10 000 маленьких световых пучков. В одном кадре уместилось 46 000 фонарей, следовательно — 460 миллионов световых пучков!
  • Образцом для водопада и бурного потока неподалёку от башни послужили реки и водопады в Йосемитском национальном парке в Калифорнии. Старший специалист по спецэффектам ездил туда на два дня и отснял больше 150 видеороликов натуры. На них и опирались в работе художники, выбирая лучшие места и ракурсы. Чтобы нарисовать водопад, требуется нарисовать больше 10 миллионов отдельных капелек.
  • Источником вдохновения для сцены, в которой речной поток прорывает деревянную дамбу, послужил аттракцион «Стремнина Гризли» (Grizzly River Run) в Калифорнийском парке развлечений Disneyland. В финальной сцене прорыва дамбы на экран выливается 23 миллиона виртуальных галлонов нарисованной воды.
  • В фильме «Рапунцель: Запутанная история» действуют пять главных героев, 21 разбойник и 38 горожан. Для кульминационной сцены с фонарями перед художниками спецэффектов была поставлена задача собрать на экране 3000 горожан. Это самая большая массовая сцена за всю историю компьютерной анимации Disney.

-

Награды

Награды:
Оскар, 2011 год
Номинации: Лучшая песня — «I See the Light»
Золотой глобус, 2011 год
Номинации: Лучшая песня , Лучший анимационный фильм
Жорж, 2011 год
Номинации: Лучший анимационный фильм
Сатурн, 2011 год
Номинации: Лучший анимационный фильм
-IMDB: 7.8/10 (146 484 votes)
Кинопоиск: 8.096 (96 942)--Сэмпл--Качество видео: BDRip исходник Blu-ray disc 1080p/HDClub
Формат видео: AVI
Видео кодек: XviD
Аудио кодек: АС3
Видео: 720x400 (1.80:1), 23.976 fps, XviD, ~1609 kbps avg, 0.23 bit/pixel
Аудио: 48 kHz, AC3 Dolby Digital, 3/2 (L,C,R,l,r) + LFE ch, ~448.00 kbps avg дубляж
Аудио: 48 kHz, AC3 Dolby Digital, 3/2 (L,C,R,l,r) + LFE ch, ~448.00 kbps avg Кубик в кубе (отдельно)
Аудио: 48 kHz, AC3 Dolby Digital, 3/2 (L,C,R,l,r) + LFE ch, ~448.00 kbps avg Ю. Сербин (отдельно)
Аудио: 48 kHz, AC3 Dolby Digital, 3/2 (L,C,R,l,r) + LFE ch, ~448.00 kbps avg оригинал (отдельно)

MI

General
Complete name : D:\Rapuncel.Zaputannaya.Istoriya.2010.BDRip\Rapuncel.Zaputannaya.Istoriya.2010.BDRip.avi
Format : AVI
Format/Info : Audio Video Interleave
File size : 1.46 GiB
Duration : 1h 40mn
Overall bit rate : 2 067 Kbps
Writing application : VirtualDubMod 1.5.10.3 (build 2550/release)
Writing library : VirtualDubMod build 2550/release
Video
ID : 0
Format : MPEG-4 Visual
Format profile : Advanced Simple@L5
Format settings, BVOP : 1
Format settings, QPel : No
Format settings, GMC : No warppoints
Format settings, Matrix : Custom
Codec ID : XVID
Codec ID/Hint : XviD
Duration : 1h 40mn
Bit rate : 1 610 Kbps
Width : 720 pixels
Height : 400 pixels
Display aspect ratio : 16:9
Frame rate : 23.976 fps
Color space : YUV
Chroma subsampling : 4:2:0
Bit depth : 8 bits
Scan type : Progressive
Compression mode : Lossy
Bits/(Pixel*Frame) : 0.233
Stream size : 1.13 GiB (78%)
Writing library : XviD 64
Audio
ID : 1
Format : AC-3
Format/Info : Audio Coding 3
Mode extension : CM (complete main)
Codec ID : 2000
Duration : 1h 40mn
Bit rate mode : Constant
Bit rate : 448 Kbps
Channel(s) : 6 channels
Channel positions : Front: L C R, Side: L R, LFE
Sampling rate : 48.0 KHz
Bit depth : 16 bits
Compression mode : Lossy
Stream size : 323 MiB (22%)
Alignment : Split accross interleaves
Interleave, duration : 42 ms (1.00 video frame)
Interleave, preload duration : 500 ms

Скриншоты



Скачать

Скачать торрент! Рапунцель: Запутанная история / Tangled (Натан Грено, Байрон Ховард / Nathan Greno, Byron Howard) [2010, США, мюзикл, комедия, семейный, мультфильм, BDRip] [Локализованный видеоряд] Dub + DVO (Кубик в кубе) + AVO (Сербин) + Original (Eng) + Subs

Как скачивать? · Что такое торрент? · Рейтинг и ограничения

Сайт не распространяет и не хранит электронные версии произведений, а лишь предоставляет доступ к создаваемому пользователями каталогу ссылок на торрент-файлы, которые содержат только списки хеш-сумм

[Профиль] [ЛС]
Показать сообщения:    
Ответить на тему

Текущее время: Сегодня 18:45

Часовой пояс: GMT + 4



Вы не можете начинать темы
Вы не можете отвечать на сообщения
Вы не можете редактировать свои сообщения
Вы не можете удалять свои сообщения
Вы не можете голосовать в опросах
Вы не можете прикреплять файлы к сообщениям
Вы не можете скачивать файлы