Добро пожаловать в Панч / Добро пожаловать в капкан / Welcome to the Punch (Эрен Криви / Eran Creevy) [2013, Великобритания, США, боевик, триллер, криминал, HDRip-AVC] VO (Евгений Гаевский) + AVO (Андрей Дольский) + Original Eng

Ответить на тему
 
Автор Сообщение

user ®

Стаж: 7 лет 7 месяцев

Сообщений: 20008

Пост Пост: #1 от 03-Сен-2013 13:10

[Цитировать]

Добро пожаловать в Панч / Добро пожаловать в капкан / Welcome to the Punch
Страна: Великобритания, США
Жанр: боевик, триллер, криминал
Год выпуска: 2013
Продолжительность: 01:39:47
Перевод 1: Одноголосый закадровый - Евгений Гаевский
Перевод 2: Авторский (одноголосый закадровый) - Андрей Дольский
Cубтитры: нет
Оригинальная аудиодорожка: английский
Режиссер: Эрен Криви / Eran Creevy
В ролях: Джеймс МакЭвой, Марк Стронг, Андреа Райзборо, Дэвид Моррисси, Питер Муллан, Джейсон Флеминг, Элайес Габел, Дэниэл Калуя, Дэниэл Мейс, Джонни Харрисел Дэниэл Калуя Дэниэл Мейс Джонни Харрис и др.
Описание:
Бывший преступник Джейкоб Стернбуд вынужден вернуться в Лондон из своего убежища, когда его сын вовлечен в ограбление пошедшее не так. У детектива Макса Левински появляется шанс поймать человека, которому всегда удавалось уйти. Соперники снова меряются силами, но они сталкиваются с более глубоким преступным заговором, с которым вынуждены бороться, чтобы выжить.
"По названию. "Welcome to the punch" перевел как "Добро пожаловать в Панч". Да, в прокате фильм идет под названием "Добро пожаловать в капкан". Но почему "капкан", лично я понять не смог. По фильму это никак не объясняется. В целом, название смысла особого не несет, как мне кажется. Это просто заголовок, надпись, а точнее, обозначение места. Сам фильм - это действие. "Панч" - это что-то нейтральное, непонятное, примерно как само название." © Евгений Гаевский
Доп. информация:
Перевод Евгения Гаевского доступен благодаря mihey10, работа со звуком - Perevodman, автор рипа - mihaildns.

Файл:
Качество видео: HDRip-AVC, исходник [BDRip 1080p]
Формат видео: MKV
Видео: 1152x480 (16:9), 1644 kbps avg, 23,976 fps, 0.124 bit/pixel
Аудио 1: 48 kHz, AC3, 3/2 (L,C,R,l,r) + LFE ch, ~448.00 kbps - Гаевский
Аудио 2: 48 kHz, AC3, 3/2 (L,C,R,l,r) + LFE ch, ~448.00 kbps - Дольский
Аудио 3: 48 kHz, AC3, 3/2 (L,C,R,l,r) + LFE ch, ~448.00 kbps - Eng

MediaInfo

Общее
Уникальный идентификатор : 219231622300364075613467074129394967194 (0xA4EE798055C128819E4CB7B885B0A29A)
Формат : Matroska
Версия формата : Version 2
Размер файла : 2,08 Гбайт
Продолжительность : 1 ч. 39 м.
Общий поток : 2987 Кбит/сек
Дата кодирования : UTC 2013-09-01 13:00:04
Программа кодирования : mkvmerge v3.0.0 ('Hang up your Hang-Ups') built on Dec 12 2009 15:20:35
Библиотека кодирования : libebml v0.7.9 + libmatroska v0.8.1
Видео
Идентификатор : 1
Формат : AVC
Формат/Информация : Advanced Video Codec
Профиль формата : High@L4.1
Параметр CABAC формата : Да
Параметр ReFrames формата : 7 кадров
Идентификатор кодека : V_MPEG4/ISO/AVC
Продолжительность : 1 ч. 39 м.
Битрейт : 1644 Кбит/сек
Ширина : 1152 пикселя
Высота : 480 пикселей
Соотношение сторон : 2,40:1
Режим частоты кадров : Постоянный
Частота кадров : 23,976 кадра/сек
Цветовое пространство : YUV
Субдискретизация насыщенности : 4:2:0
Битовая глубина : 8 бит
Тип развёртки : Прогрессивная
Бит/(Пиксели*Кадры) : 0.124
Размер потока : 1,10 Гбайт (53%)
Библиотека кодирования : x264 core 125 r2208 d9d2288
Настройки программы : cabac=1 / ref=7 / deblock=1:-3:-3 / analyse=0x3:0x111 / me=umh / subme=9 / psy=1 / psy_rd=1.00:0.00 / mixed_ref=1 / me_range=24 / chroma_me=1 / trellis=2 / 8x8dct=1 / cqm=0 / deadzone=21,11 / fast_pskip=0 / chroma_qp_offset=-2 / threads=3 / lookahead_threads=1 / sliced_threads=0 / nr=0 / decimate=1 / interlaced=0 / bluray_compat=0 / constrained_intra=0 / bframes=9 / b_pyramid=2 / b_adapt=2 / b_bias=0 / direct=3 / weightb=1 / open_gop=0 / weightp=2 / keyint=250 / keyint_min=23 / scenecut=40 / intra_refresh=0 / rc_lookahead=50 / rc=2pass / mbtree=1 / bitrate=1644 / ratetol=1.0 / qcomp=0.60 / qpmin=0 / qpmax=69 / qpstep=4 / cplxblur=20.0 / qblur=0.5 / ip_ratio=1.40 / aq=1:1.10
Default : Нет
Forced : Нет
Аудио #1
Идентификатор : 2
Формат : AC-3
Формат/Информация : Audio Coding 3
Расширение режима : CM (complete main)
Параметр Endianness формата : Big
Идентификатор кодека : A_AC3
Продолжительность : 1 ч. 39 м.
Вид битрейта : Постоянный
Битрейт : 448 Кбит/сек
Каналы : 6 каналов
Расположение каналов : Front: L C R, Side: L R, LFE
Частота : 48,0 КГц
Битовая глубина : 16 бит
Метод сжатия : С потерями
Размер потока : 320 Мбайт (15%)
Заголовок : AVO Гаевский
Язык : Russian
Default : Да
Forced : Нет
Аудио #2
Идентификатор : 3
Формат : AC-3
Формат/Информация : Audio Coding 3
Расширение режима : CM (complete main)
Параметр Endianness формата : Big
Идентификатор кодека : A_AC3
Продолжительность : 1 ч. 39 м.
Вид битрейта : Постоянный
Битрейт : 448 Кбит/сек
Каналы : 6 каналов
Расположение каналов : Front: L C R, Side: L R, LFE
Частота : 48,0 КГц
Битовая глубина : 16 бит
Метод сжатия : С потерями
Размер потока : 320 Мбайт (15%)
Заголовок : AVO Дольский
Язык : Russian
Default : Нет
Forced : Нет
Аудио #3
Идентификатор : 4
Формат : AC-3
Формат/Информация : Audio Coding 3
Расширение режима : CM (complete main)
Параметр Endianness формата : Big
Идентификатор кодека : A_AC3
Продолжительность : 1 ч. 39 м.
Вид битрейта : Постоянный
Битрейт : 448 Кбит/сек
Каналы : 6 каналов
Расположение каналов : Front: L C R, Side: L R, LFE
Частота : 48,0 КГц
Битовая глубина : 16 бит
Метод сжатия : С потерями
Размер потока : 320 Мбайт (15%)
Заголовок : Оригинал
Язык : English
Default : Нет
Forced : Нет

Скриншот c названием фильма

Скриншоты

Скачать

Скачать торрент!

Как скачивать? · Что такое торрент? · Рейтинг и ограничения

Сайт не распространяет и не хранит электронные версии произведений, а лишь предоставляет доступ к создаваемому пользователями каталогу ссылок на торрент-файлы, которые содержат только списки хеш-сумм

[Профиль] [ЛС]
Показать сообщения:    
Ответить на тему

Текущее время: Сегодня 09:55

Часовой пояс: GMT + 4



Вы не можете начинать темы
Вы не можете отвечать на сообщения
Вы не можете редактировать свои сообщения
Вы не можете удалять свои сообщения
Вы не можете голосовать в опросах
Вы не можете прикреплять файлы к сообщениям
Вы не можете скачивать файлы