Эмпайр Стэйт / Empire State (Дито Монтиель / Dito Montiel) [2013, США, Боевик, драма, BDRip] DVO

Ответить на тему
 
Автор Сообщение

user ®

Стаж: 7 лет 7 месяцев

Сообщений: 20008

Пост Пост: #1 от 03-Сен-2013 10:00

[Цитировать]

Эмпайр Стэйт / Empire State- Год выпуска: 2013
Выпущено: США / Grosvenor Park Media, Swift Street Productions
Жанр: боевик, драма
Продолжительность: 01:34:20
Перевод: Профессиональный (двухголосый закадровый)
Cубтитры: нет-Режиссер:
Дито Монтиель / Dito Montiel-В ролях:
Лиам Хемсворт (Chris Potamitis), Дуэйн Джонсон (James Ransome), Эмма Робертс (Nancy Michaelides), Никки Рид (Lizzette), Шеней Граймс (Eleni), Майкл Ангарано (Eddie), Джерри Феррара (Jimmy), Крис Диамантополос (Spyro), Майкл Рисполи (Tony), Джина Мантенья (Vicky), Пол Бен-Виктор (Tommy)-Описание:
В этом триллере, основанном на реальных событиях, речь пойдет о произошедшем в 1982 году в Нью-Йорке ограблении инкассаторских бронеавтомобилей, которое на тот момент считалось крупнейшим в США.-КиноПоиск | Сэмпл |-Качество: BDRip [Empire.State.2013.1080p.BluRay.AVC.DTS-HD.MA.5.1-PublicHD]
Формат: AVI
Видео: 688x288 (2.39:1), 23.976 fps, XviD build 73 ~963 kbps avg, 0.20 bit/pixel
Аудио: 48 kHz, MPEG Layer 3, 2 ch, ~128.00 kbps avg
-

Скриншоты

MediaInfo

General
Complete name                            : D:\Empire_State_2013_BDRip_745_by_Dalemake.avi
Format                                   : AVI
Format/Info                              : Audio Video Interleave
File size                                : 743 MiB
Duration                                 : 1h 34mn
Overall bit rate                         : 1 101 Kbps
Writing application                      : VirtualDubMod 1.5.10.3 | www.virtualdub-fr.org || (build 2550/release)
Writing library                          : VirtualDubMod build 2550/release
Video
ID                                       : 0
Format                                   : MPEG-4 Visual
Format profile                           : Advanced Simple@L5
Format settings, BVOP                    : 2
Format settings, QPel                    : No
Format settings, GMC                     : No warppoints
Format settings, Matrix                  : Custom
Codec ID                                 : XVID
Codec ID/Hint                            : XviD
Duration                                 : 1h 34mn
Bit rate                                 : 964 Kbps
Width                                    : 688 pixels
Height                                   : 288 pixels
Display aspect ratio                     : 2.40:1
Frame rate                               : 23.976 fps
Color space                              : YUV
Chroma subsampling                       : 4:2:0
Bit depth                                : 8 bits
Scan type                                : Progressive
Compression mode                         : Lossy
Bits/(Pixel*Frame)                       : 0.203
Stream size                              : 650 MiB (88%)
Writing library                          : XviD 73
Audio
ID                                       : 1
Format                                   : MPEG Audio
Format version                           : Version 1
Format profile                           : Layer 3
Codec ID                                 : 55
Codec ID/Hint                            : MP3
Duration                                 : 1h 34mn
Bit rate mode                            : Constant
Bit rate                                 : 128 Kbps
Channel(s)                               : 2 channels
Sampling rate                            : 48.0 KHz
Compression mode                         : Lossy
Stream size                              : 86.4 MiB (12%)
Alignment                                : Aligned on interleaves
Interleave, duration                     : 42 ms (1.00 video frame)
Interleave, preload duration             : 504 ms
Writing library                          : LAME3.99r
Encoding settings                        : -m s -V 4 -q 2 -lowpass 17 -b 128
-
Скачать

Скачать торрент!

Как скачивать? · Что такое торрент? · Рейтинг и ограничения

Сайт не распространяет и не хранит электронные версии произведений, а лишь предоставляет доступ к создаваемому пользователями каталогу ссылок на торрент-файлы, которые содержат только списки хеш-сумм

[Профиль] [ЛС]
Показать сообщения:    
Ответить на тему

Текущее время: Сегодня 21:44

Часовой пояс: GMT + 4



Вы не можете начинать темы
Вы не можете отвечать на сообщения
Вы не можете редактировать свои сообщения
Вы не можете удалять свои сообщения
Вы не можете голосовать в опросах
Вы не можете прикреплять файлы к сообщениям
Вы не можете скачивать файлы