Из жизни разбойников (1, 2) (Софья Кравцова) [2002-2004 г., Мультфильм, DVDRip]

Ответить на тему
 
Автор Сообщение

user ®

Стаж: 7 лет 7 месяцев

Сообщений: 20008

Пост Пост: #1 от 03-Сен-2013 03:45

[Цитировать]

Из жизни разбойников (1, 2)Страна: Россия
Жанр: Мультфильм
Продолжительность: 00:16:57+ 00:14:01
Год выпуска: 2002-2004
Выпущено: Кинокомпания «Мастер-Фильм»
Режиссёр: Софья Кравцова
Русские субтитры: нетОписание:Весёлые истории о незадачливых разбойниках и одной строгой даме. По мотивам сказки Турбьёрна Эгнера «Люди и разбойники из Кардамона».
В первом фильме Эспер, Каспер и Юнатан знакомятся с тётушкой Софией, которая умеет наводить не только порядок и пироги, но и дисциплину...
Во второй части разбойников ждут новогодние приключения.

Режиссёр и команда

Режиссёр Софья Кравцова
сценарист: Анна Калин
художники-постановщики: Оксана Холодова, Софья Кравцова
аниматоры: Александр Панов, Т. Киселева, Наталия Богомолова, Галина Зеброва
композиторы: Александр Гусев (1, 2), Дмитрий Швадченко (1)
звукорежиссёры: Александр Гусев, Виктор Брус
Роли озвучивали: Ольга Волкова, Дмитрий Ячевский. Василий Куприянов, Александр Малов.
Качество: DVDRip
Формат: AVI
Видео: 720x544 (1.32:1), 25 fps, XviD build 64 ~2374 kbps avg, 0.24 bit/pixel
Аудио: 48 kHz, AC3 Dolby Digital, 2/0 (L,R) ch, ~192 kbps
Субтитры: отсутствуют

Подробные технические данные

1.ОбщееПолное имя : D:\Мульты\Iz_zhizni_razboynikov_(1,_2)\Iz_zhizni_razboynikov_(1).aviФормат : AVIФормат/Информация : Audio Video InterleaveРазмер файла : 312 МбайтПродолжительность : 16 м.Общий поток : 2577 Кбит/секПрограмма кодирования : VirtualDubMod 1.5.10.2 (build 2540/release)Библиотека кодирования : VirtualDubMod build 2540/release
ВидеоИдентификатор : 0Формат : MPEG-4 VisualПрофиль формата : Advanced Simple@L5Параметр BVOP формата : 2Параметр QPel формата : НетПараметр GMC формата : Без точки переходаПараметр матрицы формата : ВыборочнаяИдентификатор кодека : XVIDИдентификатор кодека/Подсказка : XviDПродолжительность : 16 м.Битрейт : 2375 Кбит/секШирина : 720 пикселейВысота : 544 пикселяСоотношение сторон : 4:3Частота кадров : 25,000 кадров/секЦветовое пространство : YUVСубдискретизация насыщенности : 4:2:0Битовая глубина : 8 битТип развёртки : ПрогрессивнаяМетод сжатия : С потерямиБит/(Пиксели*Кадры) : 0.243Размер потока : 288 Мбайт (92%)Библиотека кодирования : XviD 64
АудиоИдентификатор : 1Формат : AC-3Формат/Информация : Audio Coding 3Расширение режима : CM (complete main)Идентификатор кодека : 2000Продолжительность : 16 м.Вид битрейта : ПостоянныйБитрейт : 192 Кбит/секКаналы : 2 каналаРасположение каналов : Front: L RЧастота : 48,0 КГцБитовая глубина : 16 битМетод сжатия : С потерямиРазмер потока : 23,3 Мбайт (7%)Выравнивание : Разделение по промежуткамПродолжительность промежутка : 40 мс. (1,00 видеокадр)Время предзагрузки промежутка : 500 мс.________________________________________________________________
2.ОбщееПолное имя : D:\Мульты\Iz_zhizni_razboynikov_(1,_2)\Iz_zhizni_razboynikov_(2).aviФормат : AVIФормат/Информация : Audio Video InterleaveРазмер файла : 258 МбайтПродолжительность : 14 м.Общий поток : 2577 Кбит/секПрограмма кодирования : VirtualDubMod 1.5.10.2 (build 2540/release)Библиотека кодирования : VirtualDubMod build 2540/release
ВидеоИдентификатор : 0Формат : MPEG-4 VisualПрофиль формата : Advanced Simple@L5Параметр BVOP формата : 2Параметр QPel формата : НетПараметр GMC формата : Без точки переходаПараметр матрицы формата : ВыборочнаяИдентификатор кодека : XVIDИдентификатор кодека/Подсказка : XviDПродолжительность : 14 м.Битрейт : 2375 Кбит/секШирина : 720 пикселейВысота : 544 пикселяСоотношение сторон : 4:3Частота кадров : 25,000 кадров/секЦветовое пространство : YUVСубдискретизация насыщенности : 4:2:0Битовая глубина : 8 битТип развёртки : ПрогрессивнаяМетод сжатия : С потерямиБит/(Пиксели*Кадры) : 0.243Размер потока : 238 Мбайт (92%)Библиотека кодирования : XviD 64
АудиоИдентификатор : 1Формат : AC-3Формат/Информация : Audio Coding 3Расширение режима : CM (complete main)Идентификатор кодека : 2000Продолжительность : 14 м.Вид битрейта : ПостоянныйБитрейт : 192 Кбит/секКаналы : 2 каналаРасположение каналов : Front: L RЧастота : 48,0 КГцБитовая глубина : 16 битМетод сжатия : С потерямиРазмер потока : 19,3 Мбайт (7%)Выравнивание : Разделение по промежуткамПродолжительность промежутка : 40 мс. (1,00 видеокадр)Время предзагрузки промежутка : 500 мс.

Скриншоты

1.

2.
-
Скачать

Скачать торрент!

Как скачивать? · Что такое торрент? · Рейтинг и ограничения

Сайт не распространяет и не хранит электронные версии произведений, а лишь предоставляет доступ к создаваемому пользователями каталогу ссылок на торрент-файлы, которые содержат только списки хеш-сумм

[Профиль] [ЛС]
Показать сообщения:    
Ответить на тему

Текущее время: Сегодня 13:41

Часовой пояс: GMT + 4



Вы не можете начинать темы
Вы не можете отвечать на сообщения
Вы не можете редактировать свои сообщения
Вы не можете удалять свои сообщения
Вы не можете голосовать в опросах
Вы не можете прикреплять файлы к сообщениям
Вы не можете скачивать файлы