Совершенно секретно / Secretly Greatly (Чан Чхоль Су / Jang Cheol-soo) [2013, Южная Корея, комедия, лайв-экшн, HDTVRip-AVC] Sub Rus

Ответить на тему
 
Автор Сообщение

user ®

Стаж: 13 лет

Сообщений: 15071

Пост Пост: #1 от 03-Сен-2013 03:45

[Цитировать]

Совершенно секретно / Secretly Greatly Страна: Южная Корея
Жанр: комедия, лайв-экшн
Год выпуска: 2013
Продолжительность: 2:04:00
Перевод: Субтитры
Cубтитры: русские
Режиссер: Чан Чхоль Су / Jang Cheol-soo
В ролях: В главных ролях: Пак Ки Ун, Ким Су Хён, Ли Хён У
Описание: Эта веселая история с динамичным сюжетом основана на популярной веб-манхве "Covertly Gloriously"
Три привлекательных шпиона из Северной Кореи проживают в Южной Корее, как самые обычные люди. Три совершенно разных парня: немного глуповатый Вон Рю Хван (Ким Су Хён), стремящийся стать айдолом Ри Хэ Ран (Пак Ки Ун) и ученик средней школы Ри Хэ Чин (Ли Хён У). Все трое обитают в Южной Корее, в одном из бедных районов Сеула. Спустя два года ожидания они получают спец-задание от своей родины, Северной Кореи.
Доп. информация: Перевод:
Сэмпл: http://multi-up.com/899645
Качество видео: HDTVRip-AVC
Формат видео: MP4
Видео: Video: MPEG4 Video (H264) 1280x720 23.98fps [vide (eng)]
Аудио: Audio: AAC 48000Hz stereo [soun (eng)]
Формат субтитров: softsub (SSA/ASS)

MediaInfo

C:\Users\DNS\Desktop\陝焌?煖橓淙孼狀 遵愉奄狀\Secretly.Greatly.2013.HDrip.H264.720p-Mbaro.mp4
General
Complete name : C:\Users\DNS\Desktop\陝焌?煖橓淙孼狀 遵愉奄狀\Secretly.Greatly.2013.HDrip.H264.720p-Mbaro.mp4
Format : MPEG-4
Format profile : Base Media
Codec ID : isom
File size : 3.64 GiB
Duration : 2h 4mn
Overall bit rate mode : Variable
Overall bit rate : 4 199 Kbps
Writing application : Lavf52.61.0
Video #1
ID : 1
Format : AVC
Format/Info : Advanced Video Codec
Format profile : Baseline@L3.1
Format settings, CABAC : No
Format settings, ReFrames : 1 frame
Format settings, GOP : M=1, N=96
Codec ID : avc1
Codec ID/Info : Advanced Video Coding
Duration : 2h 4mn
Bit rate : 3 995 Kbps
Width : 1 280 pixels
Height : 720 pixels
Display aspect ratio : 16:9
Frame rate mode : Constant
Frame rate : 23.976 fps
Color space : YUV
Chroma subsampling : 4:2:0
Bit depth : 8 bits
Scan type : Progressive
Bits/(Pixel*Frame) : 0.181
Stream size : 3.47 GiB (95%)
Writing library : x264 core 85 r1442 781d300
Encoding settings : cabac=0 / ref=1 / deblock=0:0:0 / analyse=0x1:0x111 / me=umh / subme=7 / psy=0 / mixed_ref=0 / me_range=16 / chroma_me=1 / trellis=0 / 8x8dct=0 / cqm=0 / deadzone=21,11 / fast_pskip=0 / chroma_qp_offset=0 / threads=18 / sliced_threads=0 / nr=0 / decimate=1 / mbaff=0 / constrained_intra=0 / bframes=0 / wpredp=0 / keyint=96 / keyint_min=49 / scenecut=0 / intra_refresh=0 / rc=2pass / mbtree=0 / bitrate=3995 / ratetol=0.1 / qcomp=0.60 / qpmin=10 / qpmax=51 / qpstep=4 / cplxblur=20.0 / qblur=0.5 / ip_ratio=1.41 / aq=1:1.00
Language : English
Audio #2
ID : 2
Format : AAC
Format/Info : Advanced Audio Codec
Format profile : LC
Codec ID : 40
Duration : 2h 4mn
Bit rate mode : Variable
Bit rate : 192 Kbps
Channel(s) : 2 channels
Channel positions : Front: L R
Sampling rate : 48.0 KHz
Compression mode : Lossy
Stream size : 168 MiB (5%)
Language : English

Скриншот c названием фильма

Скриншоты

Скачать

Скачать торрент! Совершенно секретно / Secretly Greatly (Чан Чхоль Су / Jang Cheol-soo) [2013, Южная Корея, комедия, лайв-экшн, HDTVRip-AVC] Sub Rus

Как скачивать? · Что такое торрент? · Рейтинг и ограничения

Сайт не распространяет и не хранит электронные версии произведений, а лишь предоставляет доступ к создаваемому пользователями каталогу ссылок на торрент-файлы, которые содержат только списки хеш-сумм

[Профиль] [ЛС]
Показать сообщения:    
Ответить на тему

Текущее время: Сегодня 16:08

Часовой пояс: GMT + 4



Вы не можете начинать темы
Вы не можете отвечать на сообщения
Вы не можете редактировать свои сообщения
Вы не можете удалять свои сообщения
Вы не можете голосовать в опросах
Вы не можете прикреплять файлы к сообщениям
Вы не можете скачивать файлы