Ужин с придурком / Le Diner de cons (Франсис Вебер / Francis Veber) [1998, Франция, комедия, BDRip 1080p] MVO + Original (Fre) + Subs (Rus, Eng)

Ответить на тему
 
Автор Сообщение

user ®

Стаж: 7 лет 7 месяцев

Сообщений: 20008

Пост Пост: #1 от 03-Сен-2013 00:35

[Цитировать]

Ужин с придурком / Le Diner de cons
Страна: Франция
Жанр: комедия
Год выпуска: 1998
Продолжительность: 01:20:00
Перевод: Профессиональный многоголосый
Cубтитры: Русские, английские
Оригинальная аудиодорожка: французский
Режиссер: Франсис Вебер / Francis Veber
В ролях: Тьерри Лермитт, Жак Вильре, Френсис Хастер, Дэниэл Превост, Александра Вандернот, Катрин Фро, Жак Блю, Филипп Бриго, Мишель Качча
Описание:
Каждую среду компания молодых аристократов устраивает ужин, на который каждый участник должен привести одного придурка. Тот, чей идиот окажется самым убедительным, выигрывает приз. Когда до Пьера дошла очередь привести гостя, он очень обрадовался. Ведь накануне Пьер как раз познакомился с умопомрачительным, фантастическим идиотом Франсуа Пиньоном. Но пригласив его на ужин, Пьер и представить себе не мог, что за несколько часов этот Пиньон полностью разрушит его жизнь...
Тип релиза: BDRip 1080p
Контейнер: MKV
Видео: AVC, 1920x824, 12.2 Мбит/с, 24.000 fps
Аудио 1: Русский (AC3 , 6 сh, 448 Кбит/c)
Аудио 2: Французский (DTS, 6 сh, 1536 Кбит/с)
Сэмпл: http://multi-up.com/899700

MI

General
Unique ID : 182065743805398227588596124041884765803 (0x88F896377D2FE8E6BE9E2580D62C8E6B)
Complete name : E:\Ужин с придурком\Uzhin.s.pridurkom.1998.H.264.BDRip.(1080p).Pirate.mkv
Format : Matroska
Format version : Version 1
File size : 7.93 GiB
Duration : 1h 20mn
Overall bit rate : 14.2 Mbps
Encoded date : UTC 2009-01-13 08:30:14
Writing application : mkvmerge v2.4.1 ('Use Me') built on Dec 5 2008 18:30:05
Writing library : libebml v0.7.7 + libmatroska v0.8.1
Video
ID : 1
Format : AVC
Format/Info : Advanced Video Codec
Format profile : High@L4.1
Format settings, CABAC : Yes
Format settings, ReFrames : 5 frames
Codec ID : V_MPEG4/ISO/AVC
Duration : 1h 20mn
Bit rate : 12.2 Mbps
Width : 1 920 pixels
Height : 824 pixels
Display aspect ratio : 2.35:1
Frame rate mode : Constant
Frame rate : 24.000 fps
Color space : YUV
Chroma subsampling : 4:2:0
Bit depth : 8 bits
Scan type : Progressive
Bits/(Pixel*Frame) : 0.322
Stream size : 6.68 GiB (84%)
Writing library : x264 core 65 r1072M f586ba5
Encoding settings : cabac=1 / ref=5 / deblock=1:-3:-3 / analyse=0x3:0x113 / me=umh / subme=9 / psy_rd=1.0:0.0 / mixed_ref=1 / me_range=32 / chroma_me=1 / trellis=0 / 8x8dct=1 / cqm=2 / deadzone=6,4 / chroma_qp_offset=-2 / threads=6 / nr=0 / decimate=1 / mbaff=0 / bframes=3 / b_pyramid=1 / b_adapt=2 / b_bias=0 / direct=3 / wpredb=1 / keyint=240 / keyint_min=24 / scenecut=40(pre) / rc=2pass / bitrate=12233 / ratetol=1.0 / qcomp=0.60 / qpmin=10 / qpmax=51 / qpstep=4 / cplxblur=20.0 / qblur=0.5 / ip_ratio=1.40 / pb_ratio=1.30 / aq=1:1.00
Language : French
Default : Yes
Forced : No
Audio #1
ID : 2
Format : AC-3
Format/Info : Audio Coding 3
Mode extension : CM (complete main)
Format settings, Endianness : Big
Codec ID : A_AC3
Duration : 1h 20mn
Bit rate mode : Constant
Bit rate : 448 Kbps
Channel(s) : 6 channels
Channel positions : Front: L C R, Side: L R, LFE
Sampling rate : 48.0 KHz
Bit depth : 16 bits
Compression mode : Lossy
Delay relative to video : 12ms
Stream size : 256 MiB (3%)
Title : AC3 5.1 448 kbps
Language : Russian
Default : Yes
Forced : No
Audio #2
ID : 3
Format : DTS
Format/Info : Digital Theater Systems
Mode : 16
Format settings, Endianness : Big
Codec ID : A_DTS
Duration : 1h 20mn
Bit rate mode : Constant
Bit rate : 1 509 Kbps
Channel(s) : 6 channels
Channel positions : Front: L C R, Side: L R, LFE
Sampling rate : 48.0 KHz
Bit depth : 24 bits
Compression mode : Lossy
Stream size : 863 MiB (11%)
Title : DTS 5.1 1536 kbps
Language : French
Default : No
Forced : No
Text #1
ID : 4
Format : UTF-8
Codec ID : S_TEXT/UTF8
Codec ID/Info : UTF-8 Plain Text
Language : Russian
Default : No
Forced : No
Text #2
ID : 5
Format : UTF-8
Codec ID : S_TEXT/UTF8
Codec ID/Info : UTF-8 Plain Text
Language : English
Default : No
Forced : No

Скриншоты

Скачать

Скачать торрент!

Как скачивать? · Что такое торрент? · Рейтинг и ограничения

Сайт не распространяет и не хранит электронные версии произведений, а лишь предоставляет доступ к создаваемому пользователями каталогу ссылок на торрент-файлы, которые содержат только списки хеш-сумм

[Профиль] [ЛС]
Показать сообщения:    
Ответить на тему

Текущее время: Сегодня 22:42

Часовой пояс: GMT + 4



Вы не можете начинать темы
Вы не можете отвечать на сообщения
Вы не можете редактировать свои сообщения
Вы не можете удалять свои сообщения
Вы не можете голосовать в опросах
Вы не можете прикреплять файлы к сообщениям
Вы не можете скачивать файлы