Цветы распустились в саду / Phool Khile Hain Gulshan Gulshan (Сикандар Кханна / Sikandar Khanna) [1978, Индия, Мелодрама, DVDRip ] VO (Nastia) + Sub Rus (песни)

Ответить на тему
 
Автор Сообщение

user ®

Стаж: 12 лет

Сообщений: 15125

Пост Пост: #1 от 02-Сен-2013 21:25

[Цитировать]

Цветы распустились в саду / Phool Khile Hain Gulshan Gulshan
-Страна: Индия
Жанр: Мелодрама
Год выпуска на тамили: 1978
Продолжительность: 02:15:37--Язык: Хинди
Перевод: Одноголосый закадровый - Nastia
Cубтитры: Есть (только песни) [перевод: larisa_k]--Режиссер: Сикандар Кханна / Sikandar Khanna-В ролях: Риши Капур, Моушуми Чаттерджи, Ашок Кумар, Амджад Кхан, Митхун Чакраборти, Говардан Асрани, Пайнтал, Ранджит, Шрирам Лагу, Хелен--Описание: Зная о том, что его внук Вишал приобрел все плохие привычки богатого и испорченного повесы, включая распутство и алкоголь, Лала Ганпат Рай сообщает своим адвокатам, что Вишал не получит ни рупии наследства, если не выполнит хотя бы одно из двух условий. Первое: он должен жениться на девушке по выбору Рая, Шалини, которая должна унаследовать половину собственности. Для того, чтобы Вишал мог унаследовать всю собственность, он должен поселиться в деревне и, обработав участок земли, вырастить в течение года урожай. Разумеется, Вишал не в восторге ни от одного из этих условий. Тем не менее, он и несколько его друзей едут в деревню, находят участок земли и пытаются его обработать. Но все идет не так, как планировалось: Вишала и его друзей обвиняют в изнасиловании деревенской красавицы...-- | Кинопоиск--Качество видео: DVDRip
Формат видео: AVI-Видео: XVID, 592х464, 23.976 fps, 1399 Kbps
Аудио: MP3, 48 КHz, 2 сh, 128 Kbps
Формат субтитров: softsub (SRT)--Сведение аудио: pca1962 (спасибо!)
Озвучила Nastia по субтитрам Tanya1069 (спасибо!)
Риппер: soso4eg-- -
-

Скриншот с названием


-

Скриншоты:


-

MI

Общее
Полное имя : H:\[Релизы]\[DVDRip]\Cvety.Raspustilis.V.Sadu.1978.DVDRip.XviD.soso4eg.avi
Формат : AVI
Формат/Информация : Audio Video Interleave
Размер файла : 1,46 Гбайт
Продолжительность : 2 ч. 15 м.
Общий поток : 1536 Кбит/сек
Название фильма : Cvety.Raspustilis.V.Sadu.1978.DVDRip.XviD.soso4eg
Режиссёр : soso4eg
Программа кодирования : VirtualDubMod 1.5.10.3 | www.virtualdub-fr.org || (build 2550/release)
Видео
Идентификатор : 0
Формат : MPEG-4 Visual
Профиль формата : Advanced Simple@L5
Параметр BVOP формата : 2
Параметр QPel формата : Нет
Параметр GMC формата : Без точки перехода
Параметр матрицы формата : Default (H.263)
Идентификатор кодека : XVID
Идентификатор кодека/Подсказка : XviD
Продолжительность : 2 ч. 15 м.
Битрейт : 1399 Кбит/сек
Ширина : 592 пикселя
Высота : 464 пикселя
Соотношение сторон : 1,276
Частота кадров : 23,976 кадра/сек
Цветовое пространство : YUV
Субдискретизация насыщенности : 4:2:0
Битовая глубина : 8 бит
Тип развёртки : Прогрессивная
Метод сжатия : С потерями
Бит/(Пиксели*Кадры) : 0.212
Размер потока : 1,33 Гбайт (91%)
Библиотека кодирования : XviD 1.2.1 (UTC 2008-12-04)
Аудио
Идентификатор : 1
Формат : MPEG Audio
Версия формата : Version 1
Профиль формата : Layer 3
Режим : Joint stereo
Идентификатор кодека : 55
Идентификатор кодека/Подсказка : MP3
Продолжительность : 2 ч. 15 м.
Вид битрейта : Постоянный
Битрейт : 128 Кбит/сек
Каналы : 2 канала
Частота : 48,0 КГц
Метод сжатия : С потерями
Размер потока : 124 Мбайт (8%)
Выравнивание : Соединение по промежуткам
Продолжительность промежутка : 42 мс. (1,00 видеокадр)
Время предзагрузки промежутка : 504 мс.
-
Скачать

Скачать торрент! Цветы распустились в саду / Phool Khile Hain Gulshan Gulshan (Сикандар Кханна / Sikandar Khanna) [1978, Индия, Мелодрама, DVDRip ] VO (Nastia) + Sub Rus (песни)

Как скачивать? · Что такое торрент? · Рейтинг и ограничения

Сайт не распространяет и не хранит электронные версии произведений, а лишь предоставляет доступ к создаваемому пользователями каталогу ссылок на торрент-файлы, которые содержат только списки хеш-сумм

[Профиль] [ЛС]
Показать сообщения:    
Ответить на тему

Текущее время: Сегодня 00:10

Часовой пояс: GMT + 4



Вы не можете начинать темы
Вы не можете отвечать на сообщения
Вы не можете редактировать свои сообщения
Вы не можете удалять свои сообщения
Вы не можете голосовать в опросах
Вы не можете прикреплять файлы к сообщениям
Вы не можете скачивать файлы