Реальные парни / Stand Up Guys (Фишер Стивенс / Fisher Stevens) [2012, США, драма, комедия, криминал, BDRip 720p] [US Transfer] Dub + 2х AVO (Гаврилов, Карповский) + VO (Багичев) + Original (Eng) + Subs (Ukr, Eng)

Ответить на тему
 
Автор Сообщение

user ®

Стаж: 7 лет 7 месяцев

Сообщений: 20008

Пост Пост: #1 от 02-Сен-2013 21:25

[Цитировать]

Реальные парни / Stand Up Guys

-
-Страна: США
Студия: Lakeshore Entertainment
Жанр: драма, комедия, криминал
Год выпуска: 2012
Продолжительность: 01:34:59--Перевод 1: Профессиональный (дублированный) Blu-ray
Перевод 2: Авторский (одноголосый закадровый) А. Гаврилов
Перевод 3: Авторский (одноголосый закадровый) А. Карповский
Перевод 4: Одноголосый закадровый А. Багичев
Cубтитры: украинские, английские (full, SDH)
Оригинальная аудиодорожка: английский--Режиссер: Фишер Стивенс / Fisher Stevens
В ролях: Аль Пачино, Кристофер Уокен, Алан Аркин, Джулианна Маргулис, Марк Марголис, Люси Панч, Эддисон Тимлин, Ванесса Ферлито, Кэтрин Уинник, Билли Барр--Описание: История строится вокруг двух уже немолодых преступников, один из которых получил задание убить близкого друга. Столь непростая ситуация требует времени на обдумывание, и киллеры решают вместе с приятелем изрядно побуянить (включая посещение борделя, угон машин и бегство от полиции), прежде чем будет принято окончательное решение.--imdb | kinopoisk | Сэмпл--Тип релиза: BDRip 720p [Stand Up Guys 2012 720p BluRay DD5.1 x264-EbP]
Контейнер: MKV
Видео: MPEG-4 AVC / 5758 Кбит/сек / 1280x534 / 23,976 fps / 2,40:1 / High Profile 4.1
Аудио 1: DTS / 5.1 / 48 kHz / 1510 kbps / 16 bits |Dub|
Аудио 2: DTS / 5.1 / 48 kHz / 1510 kbps / 24 bits |А. Гаврилов| отдельно
Аудио 3: DTS / 5.1 / 48 kHz / 1510 kbps / 24 bits |А. Карповский| отдельно
Аудио 4: DTS / 5.1 / 48 kHz / 1510 kbps / 24 bits |А. Багичев| отдельно
Аудио 5: DTS / 5.1 / 48 kHz / 1510 kbps / 24 bits |MVO, Омикрон, Ukrainian| отдельно
Аудио 6: DTS / 5.1 / 48 kHz / 1510 kbps / 24 bits |original|
Аудио 7: AC3 / 2.0 / 48 kHz / 640 kbps / 16 bits |Commentry by Director: Fisher Stevens|
Формат субтитров: softsub [SRT]

MediaInfo

Общее
Уникальный идентификатор : 210721855825795409021798889431357023286 (0x9E878D9EFC443AD3BCFFFD724EAD6436)
Полное имя : G:\HD\Реальные парни.2012.BDRip.(720p)\Реальные парни.2012.BDRip.(720p).mkv
Формат : Matroska
Версия формата : Version 2
Размер файла : 6,37 Гбайт
Продолжительность : 1 ч. 34 м.
Общий поток : 9608 Кбит/сек
Дата кодирования : UTC 2013-06-30 17:31:51
Программа кодирования : mkvmerge v5.8.0 ('No Sleep / Pillow') built on Sep 2 2012 15:37:04
Библиотека кодирования : libebml v1.2.3 + libmatroska v1.3.0
Attachment : Yes
Видео
Идентификатор : 1
Формат : AVC
Формат/Информация : Advanced Video Codec
Профиль формата : High@L4.1
Параметр CABAC формата : Да
Параметр ReFrames формата : 12 кадров
Идентификатор кодека : V_MPEG4/ISO/AVC
Продолжительность : 1 ч. 34 м.
Битрейт : 5758 Кбит/сек
Ширина : 1280 пикселей
Высота : 534 пикселя
Соотношение сторон : 2,40:1
Режим частоты кадров : Постоянный
Частота кадров : 23,976 кадра/сек
Цветовое пространство : YUV
Субдискретизация насыщенности : 4:2:0
Битовая глубина : 8 бит
Тип развёртки : Прогрессивная
Бит/(Пиксели*Кадры) : 0.351
Размер потока : 3,82 Гбайт (60%)
Заголовок : Stand Up Guys 2012 720p BluRay DD5.1 x264-EbP
Библиотека кодирования : x264 core 130 r2273 b3065e6
Настройки программы : cabac=1 / ref=12 / deblock=1:-3:-3 / analyse=0x3:0x133 / me=umh / subme=11 / psy=1 / psy_rd=0.80:0.00 / mixed_ref=1 / me_range=64 / chroma_me=1 / trellis=2 / 8x8dct=1 / cqm=0 / deadzone=21,11 / fast_pskip=0 / chroma_qp_offset=-2 / threads=12 / lookahead_threads=2 / sliced_threads=0 / nr=0 / decimate=0 / interlaced=0 / bluray_compat=0 / constrained_intra=0 / bframes=8 / b_pyramid=2 / b_adapt=2 / b_bias=0 / direct=3 / weightb=1 / open_gop=0 / weightp=2 / keyint=250 / keyint_min=23 / scenecut=40 / intra_refresh=0 / rc=crf / mbtree=0 / crf=14.5 / qcomp=0.75 / qpmin=0 / qpmax=69 / qpstep=4 / ip_ratio=1.30 / pb_ratio=1.30 / aq=1:0.95
Default : Да
Forced : Нет
Аудио #1
Идентификатор : 2
Формат : DTS
Формат/Информация : Digital Theater Systems
Режим : 16
Параметр Endianness формата : Big
Идентификатор кодека : A_DTS
Продолжительность : 1 ч. 34 м.
Вид битрейта : Постоянный
Битрейт : 1509 Кбит/сек
Каналы : 6 каналов
Расположение каналов : Front: L C R, Side: L R, LFE
Частота : 48,0 КГц
Битовая глубина : 16 бит
Метод сжатия : С потерями
Размер потока : 1,00 Гбайт (16%)
Заголовок : Дубляж, Blu-ray
Язык : Russian
Default : Да
Forced : Нет
Аудио #2
Идентификатор : 3
Формат : DTS
Формат/Информация : Digital Theater Systems
Режим : 16
Параметр Endianness формата : Big
Идентификатор кодека : A_DTS
Продолжительность : 1 ч. 34 м.
Вид битрейта : Постоянный
Битрейт : 1509 Кбит/сек
Каналы : 6 каналов
Расположение каналов : Front: L C R, Side: L R, LFE
Частота : 48,0 КГц
Битовая глубина : 24 бит
Метод сжатия : С потерями
Размер потока : 1,00 Гбайт (16%)
Язык : English
Default : Нет
Forced : Нет
Аудио #3
Идентификатор : 4
Формат : AC-3
Формат/Информация : Audio Coding 3
Расширение режима : C (commentary)
Параметр Endianness формата : Big
Идентификатор кодека : A_AC3
Продолжительность : 1 ч. 34 м.
Вид битрейта : Постоянный
Битрейт : 640 Кбит/сек
Каналы : 2 канала
Расположение каналов : Front: L R
Частота : 48,0 КГц
Битовая глубина : 16 бит
Метод сжатия : С потерями
Размер потока : 435 Мбайт (7%)
Заголовок : Commentry by Director: Fisher Stevens
Язык : English
Default : Нет
Forced : Нет
Текст #1
Идентификатор : 5
Формат : UTF-8
Идентификатор кодека : S_TEXT/UTF8
Идентификатор кодека/Информация : UTF-8 Plain Text
Язык : Ukrainian
Default : Нет
Forced : Нет
Текст #2
Идентификатор : 6
Формат : UTF-8
Идентификатор кодека : S_TEXT/UTF8
Идентификатор кодека/Информация : UTF-8 Plain Text
Заголовок : full
Язык : English
Default : Нет
Forced : Нет
Текст #3
Идентификатор : 7
Формат : UTF-8
Идентификатор кодека : S_TEXT/UTF8
Идентификатор кодека/Информация : UTF-8 Plain Text
Заголовок : SDH
Язык : English
Default : Нет
Forced : Нет
Меню
00:00:00.000 : :Chapter 01
00:07:28.448 : :Chapter 02
00:11:43.703 : :Chapter 03
00:18:41.328 : :Chapter 04
00:23:23.819 : :Chapter 05
00:28:53.940 : :Chapter 06
00:37:45.680 : :Chapter 07
00:41:33.115 : :Chapter 08
00:48:00.085 : :Chapter 09
00:54:15.418 : :Chapter 10
00:59:49.794 : :Chapter 11
01:06:18.391 : :Chapter 12
01:10:55.668 : :Chapter 13
01:16:59.448 : :Chapter 14
01:24:10.670 : :Chapter 15
01:29:41.584 : :Chapter 16

Скриншоты


Скачать

Скачать торрент!

Как скачивать? · Что такое торрент? · Рейтинг и ограничения

Сайт не распространяет и не хранит электронные версии произведений, а лишь предоставляет доступ к создаваемому пользователями каталогу ссылок на торрент-файлы, которые содержат только списки хеш-сумм

[Профиль] [ЛС]
Показать сообщения:    
Ответить на тему

Текущее время: Сегодня 18:27

Часовой пояс: GMT + 4



Вы не можете начинать темы
Вы не можете отвечать на сообщения
Вы не можете редактировать свои сообщения
Вы не можете удалять свои сообщения
Вы не можете голосовать в опросах
Вы не можете прикреплять файлы к сообщениям
Вы не можете скачивать файлы