Странный Томас / Odd Thomas (Стивен Соммерс / Stephen Sommers) [2013, США, триллер, мистика, фэнтези, боевик, DVDRip-AVC] MVO + Original Eng

Ответить на тему
 
Автор Сообщение

user ®

Стаж: 7 лет 7 месяцев

Сообщений: 20008

Пост Пост: #1 от 02-Сен-2013 18:15

[Цитировать]

Странный Томас / Odd Thomas
Страна: США
Жанр: триллер, мистика, фэнтези, боевик
Год выпуска: 2013
Продолжительность: 01:32:41
Перевод: Профессиональный (многоголосый закадровый) [Товарищество 110/17]
Оригинальная аудиодорожка: английский
Дополнительно: чаптеры, как на DVD
Cубтитры: нет
Режиссер: Стивен Соммерс / Stephen Sommers
В ролях: Антон Ельчин, Эшли Соммерс, Леонор Варела, Мэттью Пейдж, Кэйси Мессер, Берни Леннинг, Нико Торторелла, Уиллем Дефо, Кайл МакКивер, Кармен Корли
Описание: Главный герой наделен даром (или проклятием) видеть мертвецов. Каждый их визит становится началом очередной охоты на убийцу — призраки ведут Томаса на помощь тем, кому еще рано расставаться с жизнью. О способности героя знают только самые близкие друзья и любимая девушка. С их помощью ему предстоит отвести большую беду от маленького городка в центре пустыни Мохаве.
Экранизация первой книги романа Дина Кунца "Странный Томас".

Перевод: Константин Кривоногов
Работа со звуком: Алексей Фокин
Роли озвучивали: Михаил Суслов, Константин Погодаев, Владимир Чистохин, Алексей Фокин, Анастасия Флигина, Светлана Чистохина
Видеоряд от: ed_rez
Качество видео: DVDRip-AVC [Odd.Thomas.2013.HUN.PAL.DVDR-MH]
Формат видео: MKV
Видео: х264, 718х424@1022x424 (2.40:1), 25.000 fps, 1344 Кbps, 0.177 bit/pixel
Аудио: 48 kHz, AC3 Dolby Digital, 3/2 (L,C,R,l,r) + LFE ch, ~448 kbps [rus]
Аудио 2: 48 kHz, AC3 Dolby Digital, 3/2 (L,C,R,l,r) + LFE ch, ~448 kbps [eng]

x264@log

frame I:1362 Avg QP:16.41 size: 41215
frame P:33112 Avg QP:19.30 size: 13815
frame B:104559 Avg QP:20.50 size: 4019
consecutive B-frames: 3.2% 4.7% 12.2% 18.5% 13.3% 42.8% 3.6% 0.8% 0.8%

MediaInfo

Complete name : Odd.Thomas.2013.DVDRip.AVC-ed_rez.mkv
Format : Matroska
Format version : Version 4 / Version 2
File size : 1.45 GiB
Duration : 1h 32mn
Overall bit rate : 2 241 Kbps
Movie name : Odd Thomas (2013) encoded by ed_rez
Encoded date : UTC 2013-09-02 06:20:38
Writing application : mkvmerge v6.3.0 ('You can't stop me!') built on Jun 28 2013 20:09:41
Writing library : libebml v1.3.0 + libmatroska v1.4.0
Video
ID : 1
Format : AVC
Format/Info : Advanced Video Codec
Format profile : High@L4.1
Format settings, CABAC : Yes
Format settings, ReFrames : 9 frames
Codec ID : V_MPEG4/ISO/AVC
Duration : 1h 32mn
Bit rate : 1 344 Kbps
Width : 718 pixels
Height : 424 pixels
Display aspect ratio : 2.40:1
Frame rate mode : Constant
Frame rate : 25.000 fps
Color space : YUV
Chroma subsampling : 4:2:0
Bit depth : 8 bits
Scan type : Progressive
Bits/(Pixel*Frame) : 0.177
Stream size : 862 MiB (58%)
Title : Odd Thomas (2013)
Writing library : x264 core 133 r2334 a3ac64b
Encoding settings : cabac=1 / ref=9 / deblock=1:-2:-2 / analyse=0x3:0x113 / me=umh / subme=10 / psy=1 / psy_rd=1.20:0.20 / mixed_ref=1 / me_range=32 / chroma_me=1 / trellis=2 / 8x8dct=1 / cqm=0 / deadzone=21,11 / fast_pskip=0 / chroma_qp_offset=-3 / threads=12 / lookahead_threads=2 / sliced_threads=0 / nr=0 / decimate=0 / interlaced=0 / bluray_compat=0 / constrained_intra=0 / bframes=8 / b_pyramid=2 / b_adapt=2 / b_bias=0 / direct=3 / weightb=1 / open_gop=0 / weightp=2 / keyint=250 / keyint_min=25 / scenecut=40 / intra_refresh=0 / rc_lookahead=60 / rc=2pass / mbtree=0 / bitrate=1344 / ratetol=1.0 / qcomp=0.60 / qpmin=0 / qpmax=69 / qpstep=4 / cplxblur=20.0 / qblur=0.5 / vbv_maxrate=20000 / vbv_bufsize=22000 / nal_hrd=none / ip_ratio=1.40 / pb_ratio=1.30 / aq=1:1.00
Language : English
Default : Yes
Forced : No
Color primaries : BT.601 PAL
Transfer characteristics : BT.470 System B, BT.470 System G
Matrix coefficients : BT.601
Audio #1
ID : 2
Format : AC-3
Format/Info : Audio Coding 3
Mode extension : CM (complete main)
Format settings, Endianness : Big
Codec ID : A_AC3
Duration : 1h 32mn
Bit rate mode : Constant
Bit rate : 448 Kbps
Channel count : 6 channels
Channel positions : Front: L C R, Side: L R, LFE
Sampling rate : 48.0 KHz
Bit depth : 16 bits
Compression mode : Lossy
Stream size : 297 MiB (20%)
Title : [MVO- Товарищество 110/17] AC3, 6 ch, 448 kbps
Language : Russian
Default : Yes
Forced : No
Audio #2
ID : 3
Format : AC-3
Format/Info : Audio Coding 3
Mode extension : CM (complete main)
Format settings, Endianness : Big
Codec ID : A_AC3
Duration : 1h 32mn
Bit rate mode : Constant
Bit rate : 448 Kbps
Channel count : 6 channels
Channel positions : Front: L C R, Side: L R, LFE
Sampling rate : 48.0 KHz
Bit depth : 16 bits
Compression mode : Lossy
Stream size : 297 MiB (20%)
Title : [Original] AC3, 6 ch, 448 kbps
Language : English
Default : No
Forced : No
Menu
00:00:00.000 : en:Chapter 1
00:05:02.400 : en:Chapter 2
00:10:00.480 : en:Chapter 3
00:17:32.640 : en:Chapter 4
00:27:24.000 : en:Chapter 5
00:37:17.760 : en:Chapter 6
00:44:12.000 : en:Chapter 7
00:53:16.320 : en:Chapter 8
00:58:52.320 : en:Chapter 9
01:07:13.440 : en:Chapter 10
01:15:18.240 : en:Chapter 11
01:20:24.960 : en:Chapter 12
01:32:41.280 : en:Chapter 13

Скриншоты

Скачать

Скачать торрент!

Как скачивать? · Что такое торрент? · Рейтинг и ограничения

Сайт не распространяет и не хранит электронные версии произведений, а лишь предоставляет доступ к создаваемому пользователями каталогу ссылок на торрент-файлы, которые содержат только списки хеш-сумм

[Профиль] [ЛС]
Показать сообщения:    
Ответить на тему

Текущее время: Сегодня 20:31

Часовой пояс: GMT + 4



Вы не можете начинать темы
Вы не можете отвечать на сообщения
Вы не можете редактировать свои сообщения
Вы не можете удалять свои сообщения
Вы не можете голосовать в опросах
Вы не можете прикреплять файлы к сообщениям
Вы не можете скачивать файлы