Танец-вспышка / Flashdance (Эдриан Лайн / Adrian Lyne) [1983, США, Драма, мелодрама, музыка, BDRip 720p] MVO + AVO (Михалёв) + Sub Rus, Eng + Original Eng

Ответить на тему
 
Автор Сообщение

user ®

Стаж: 7 лет 7 месяцев

Сообщений: 20008

Пост Пост: #1 от 02-Сен-2013 15:05

[Цитировать]

Танец-вспышка / Flashdance
Страна: США
Студия: Paramount Pictures, PolyGram Filmed Entertainment
Жанр: Драма, мелодрама, музыка
Год выпуска: 1983
Продолжительность: 01:34:43
Перевод: Профессиональный (многоголосый закадровый)
Перевод 2: Авторский (одноголосый закадровый) Михалёв
Cубтитры: Русские, английские
Оригинальная аудиодорожка: английский
Режиссер: Эдриан Лайн
В ролях: Дженнифер Билз, Майкл Нури, Лилия Скала, Санни Джонсон, Кайл Т. Хеффнер, Ли Винг, Рон Карабацос, Белинда Бауэр, Мальколм Дэнар, Филип Брунс, Миколе Миркурио, Люси Ли Флиппин, Дон Брокетт, Синтия Роудс, Дурга МакБрум, Стейси Пикрен, Лиз Сагал, Норман Скотт, Мистер Фриз, Фрости Фриз, Принц Кен Свифт
Описание: Вечерами она танцуют сексуальные танцы в ночном клубе, днем учится на балерину, и ей покровительствует пожилая, почти святая, бывшая балерина. За ней ухаживает красивый и богатый кавалер, и мечта ее сбывается - она поступает в балетное училище.

Сэмпл
Релиз группы: NovaLan
Тип релиза: BDRip 720p
Контейнер: MKV
Видео: 1280x720, 23.976 fps, x264 7723 kbps
Аудио: (RUS): DD 2.0, 48 kHz, 192 kbps - Профессиональный многоголосый
Аудио 2: (RUS): DTS, 1510 kb/s, 5.1, 48 kHz, 24 bits - Авторский одноголосый (Михалев)
Аудио 3: (ENG): DTS, 1510 kb/s, 5.1, 48 kHz, 24 bits
Субтитры: Русские, английские (UTF-8)

MediaInfo

Уникальный идентификатор : 172051594793200027681318720926464862374 (0x816FEE8D03348179A2890C5C284FE8A6)
Полное имя : D:Раздачи_DFlashdance.1983.x264.BDRip.720p.NovaLan.mkv
Формат : Matroska
Версия формата : Version 4 / Version 2
Размер файла : 7,24 Гбайт
Продолжительность : 1 ч. 34 м.
Общий поток : 10,9 Мбит/сек
Название фильма : Flashdance.1983.x264.BDRip.720p.NovaLan
Дата кодирования : UTC 2013-08-31 04:29:15
Программа кодирования : mkvmerge v6.3.0 ('You can't stop me!') built on Jun 28 2013 20:09:41
Библиотека кодирования : libebml v1.3.0 + libmatroska v1.4.0
Видео
Идентификатор : 1
Формат : AVC
Формат/Информация : Advanced Video Codec
Профиль формата : High@L4.1
Параметр CABAC формата : Да
Параметр ReFrames формата : 8 кадров
Идентификатор кодека : V_MPEG4/ISO/AVC
Продолжительность : 1 ч. 34 м.
Битрейт : 7723 Кбит/сек
Ширина : 1280 пикселей
Высота : 720 пикселей
Соотношение сторон : 16:9
Частота кадров : 23,976 кадра/сек
Цветовое пространство : YUV
Субдискретизация насыщенности : 4:2:0
Битовая глубина : 8 бит
Тип развёртки : Прогрессивная
Бит/(Пиксели*Кадры) : 0.350
Размер потока : 4,97 Гбайт (69%)
Заголовок : Sergei7721
Библиотека кодирования : x264 core 132 r2310 76a5c3a
Настройки программы : cabac=1 / ref=8 / deblock=1:-1:-1 / analyse=0x3:0x113 / me=umh / subme=10 / psy=1 / psy_rd=1.00:0.20 / mixed_ref=1 / me_range=32 / chroma_me=1 / trellis=2 / 8x8dct=1 / cqm=0 / deadzone=21,11 / fast_pskip=0 / chroma_qp_offset=-3 / threads=12 / lookahead_threads=1 / sliced_threads=0 / nr=0 / decimate=0 / interlaced=0 / bluray_compat=0 / constrained_intra=0 / bframes=6 / b_pyramid=2 / b_adapt=2 / b_bias=0 / direct=3 / weightb=1 / open_gop=0 / weightp=2 / keyint=240 / keyint_min=23 / scenecut=40 / intra_refresh=0 / rc_lookahead=40 / rc=2pass / mbtree=0 / bitrate=7723 / ratetol=1.0 / qcomp=0.60 / qpmin=0 / qpmax=69 / qpstep=4 / cplxblur=20.0 / qblur=0.5 / vbv_maxrate=50000 / vbv_bufsize=62500 / nal_hrd=none / ip_ratio=1.40 / pb_ratio=1.30 / aq=1:1.00
Язык : English
Default : Да
Forced : Нет
Аудио #1
Идентификатор : 2
Формат : AC-3
Формат/Информация : Audio Coding 3
Расширение режима : CM (complete main)
Параметр Endianness формата : Big
Идентификатор кодека : A_AC3
Продолжительность : 1 ч. 34 м.
Вид битрейта : Постоянный
Битрейт : 192 Кбит/сек
Каналы : 2 канала
Расположение каналов : Front: L R
Частота : 48,0 КГц
Битовая глубина : 16 бит
Метод сжатия : С потерями
Размер потока : 130 Мбайт (2%)
Язык : Russian
Default : Да
Forced : Нет
Аудио #2
Идентификатор : 3
Формат : DTS
Формат/Информация : Digital Theater Systems
Идентификатор кодека : A_DTS
Продолжительность : 1 ч. 34 м.
Вид битрейта : Постоянный
Битрейт : 1510 Кбит/сек
Каналы : 6 каналов
Расположение каналов : Front: L C R, Side: L R, LFE
Частота : 48,0 КГц
Битовая глубина : 24 бит
Метод сжатия : С потерями
Размер потока : 1023 Мбайт (14%)
Язык : Russian
Default : Нет
Forced : Нет
Аудио #3
Идентификатор : 4
Формат : DTS
Формат/Информация : Digital Theater Systems
Идентификатор кодека : A_DTS
Продолжительность : 1 ч. 34 м.
Вид битрейта : Постоянный
Битрейт : 1510 Кбит/сек
Каналы : 6 каналов
Расположение каналов : Front: L C R, Side: L R, LFE
Частота : 48,0 КГц
Битовая глубина : 24 бит
Метод сжатия : С потерями
Размер потока : 1023 Мбайт (14%)
Язык : English
Default : Нет
Forced : Нет
Текст #1
Идентификатор : 5
Формат : UTF-8
Идентификатор кодека : S_TEXT/UTF8
Идентификатор кодека/Информация : UTF-8 Plain Text
Язык : Russian
Default : Да
Forced : Нет
Текст #2
Идентификатор : 6
Формат : UTF-8
Идентификатор кодека : S_TEXT/UTF8
Идентификатор кодека/Информация : UTF-8 Plain Text
Язык : English
Default : Нет
Forced : Нет
Меню
00:00:00.000 : en:00:00:00.000
00:03:51.731 : en:00:03:51.731
00:11:31.732 : en:00:11:31.732
00:24:36.433 : en:00:24:36.433
00:25:56.513 : en:00:25:56.513
00:29:35.398 : en:00:29:35.398
00:33:06.734 : en:00:33:06.734
00:39:30.951 : en:00:39:30.951
00:44:23.285 : en:00:44:23.285
00:47:54.580 : en:00:47:54.580
00:52:01.076 : en:00:52:01.076
00:55:20.233 : en:00:55:20.233
01:02:16.274 : en:01:02:16.274
01:06:02.416 : en:01:06:02.416
01:14:26.211 : en:01:14:26.211
01:18:32.457 : en:01:18:32.457
01:24:58.259 : en:01:24:58.259
01:30:02.063 : en:01:30:02.063

Скриншоты

Скачать

Скачать торрент!

Как скачивать? · Что такое торрент? · Рейтинг и ограничения

Сайт не распространяет и не хранит электронные версии произведений, а лишь предоставляет доступ к создаваемому пользователями каталогу ссылок на торрент-файлы, которые содержат только списки хеш-сумм

[Профиль] [ЛС]
Показать сообщения:    
Ответить на тему

Текущее время: Сегодня 11:59

Часовой пояс: GMT + 4



Вы не можете начинать темы
Вы не можете отвечать на сообщения
Вы не можете редактировать свои сообщения
Вы не можете удалять свои сообщения
Вы не можете голосовать в опросах
Вы не можете прикреплять файлы к сообщениям
Вы не можете скачивать файлы