Роковая женщина / Femme Fatale (Брайан Де Пальма / Brian De Palma) [2002, Франция, Швейцария, триллер, криминал, детектив, WEB-DL 720p] Dub + Sub (Rus, Eng) + Original Eng

Ответить на тему
 
Автор Сообщение

user ®

Стаж: 7 лет 7 месяцев

Сообщений: 20008

Пост Пост: #1 от 02-Сен-2013 15:05

[Цитировать]

Роковая женщина / Femme Fatale- Страна: Франция, Швейцария
Жанр: триллер, криминал, детектив
Год выпуска: 2002
Продолжительность: 01:54:31
Перевод: Профессиональный (дублированный)
Cубтитры: русские, английские
Оригинальная аудиодорожка: английский-Режиссер: Брайан Де Пальма / Brian De Palma
В ролях: Ребекка Ромин-Стамос /Rebecca Romijn-Stamos/, Антонио Бандерас /Antonio Banderas/, Питер Койот /Peter Coyote/, Эрик Эбони /Eriq Ebouaney/, Эдуард Монтут /Edouard Montoute/, Грегг Хенри /Gregg Henry/-Описание: Она — соблазнительная красавица, «роковая женщина», истинная «femme fatale». Через семь лет после дерзкого похищения брильянтов, авантюристка мирового класса возвращается в Париж под новым именем. Но когда бывший папарацци делает фотографию таинственной красотки для модного скандального журнала, он ставит под угрозу ее жизнь…-
[url=http://***/forum/viewtopic.php?t=1460328] [/url]
Тип релиза: WEB-DL 720p
Контейнер: MKV
Видео: AVC, 1280x718, 3822 Kbps, 23.976 fps
Аудио 1: AC3, 48000 Hz, 448 Kbps, 5.1 ch - Russian
Аудио 2: AC3, 48000 Hz, 448 Kbps, 5.1 ch - English
Формат субтитров: hardsub (неотключаемые) - на французскую речь
softsub (SRT) - полные русские, английские
Главы: есть
-

Скриншоты


Резервные скриншоты



-

HDTV vs. WEB-DL

сравнение с [url=http://***/forum/viewtopic.php?t=1738460]этой[/url] раздачей http://screenshotcomparison.com/comparison/39185

-

MediaInfo

Format                           : Matroska
Format version                   : Version 4 / Version 2
File size                        : 3.85 GiB
Duration                         : 1h 54mn
Overall bit rate                 : 4 814 Kbps
Movie name                       : Роковая женщина / Femme Fatale (2002) Web-DL 720p
Encoded date                     : UTC 2013-08-28 14:22:04
Writing application              : mkvmerge v6.3.0 ('You can't stop me!') built on Jun 28 2013 20:09:41
Writing library                  : libebml v1.3.0 + libmatroska v1.4.0
Attachment                       : Yes
Video
ID                               : 1
Format                           : AVC
Format/Info                      : Advanced Video Codec
Format profile                   : High@L3.1
Format settings, CABAC           : No
Format settings, ReFrames        : 2 frames
Format settings, GOP             : N=1
Codec ID                         : V_MPEG4/ISO/AVC
Duration                         : 1h 54mn
Bit rate                         : 3 822 Kbps
Width                            : 1 280 pixels
Height                           : 718 pixels
Display aspect ratio             : 16:9
Frame rate                       : 23.976 fps
Color space                      : YUV
Chroma subsampling               : 4:2:0
Bit depth                        : 8 bits
Scan type                        : Progressive
Bits/(Pixel*Frame)               : 0.173
Stream size                      : 3.06 GiB (79%)
Title                            : RG Torrents.ru & HD4FUN.COM
Language                         : English
Default                          : Yes
Forced                           : No
Color primaries                  : BT.709-5, BT.1361, IEC 61966-2-4, SMPTE RP177
Transfer characteristics         : BT.709-5, BT.1361
Matrix coefficients              : BT.709-5, BT.1361, IEC 61966-2-4 709, SMPTE RP177
Audio #1
ID                               : 2
Format                           : AC-3
Format/Info                      : Audio Coding 3
Mode extension                   : CM (complete main)
Codec ID                         : A_AC3
Duration                         : 1h 54mn
Bit rate mode                    : Constant
Bit rate                         : 448 Kbps
Channel(s)                       : 6 channels
Channel positions                : Front: L C R, Side: L R, LFE
Sampling rate                    : 48.0 KHz
Bit depth                        : 16 bits
Compression mode                 : Lossy
Stream size                      : 367 MiB (9%)
Language                         : Russian
Default                          : Yes
Forced                           : No
Audio #2
ID                               : 3
Format                           : AC-3
Format/Info                      : Audio Coding 3
Mode extension                   : CM (complete main)
Codec ID                         : A_AC3
Duration                         : 1h 54mn
Bit rate mode                    : Constant
Bit rate                         : 448 Kbps
Channel(s)                       : 6 channels
Channel positions                : Front: L C R, Side: L R, LFE
Sampling rate                    : 48.0 KHz
Bit depth                        : 16 bits
Compression mode                 : Lossy
Stream size                      : 367 MiB (9%)
Language                         : English
Default                          : No
Forced                           : No
Text #1
ID                               : 4
Format                           : UTF-8
Codec ID                         : S_TEXT/UTF8
Codec ID/Info                    : UTF-8 Plain Text
Language                         : Russian
Default                          : No
Forced                           : No
Text #2
ID                               : 5
Format                           : UTF-8
Codec ID                         : S_TEXT/UTF8
Codec ID/Info                    : UTF-8 Plain Text
Language                         : English
Default                          : No
Forced                           : No
Menu
00:00:00.000                     : en:Men and blondes.
00:04:36.000                     : en:Key players.
00:08:55.000                     : en:Bait and switch.
00:13:31.000                     : en:Code red.
00:17:30.000                     : en:Double-cross.
00:20:10.000                     : en:Gotcha!
00:23:44.000                     : en:Dropout from Room 214.
00:27:31.000                     : en:Lily's world.
00:33:50.000                     : en:Damsel in despair.
00:39:05.000                     : en:Fellow traveler.
00:42:52.000                     : en:Bardo's assignment.
00:46:03.000                     : en:Missions of menace.
00:49:43.000                     : en:Pushed toward death.
00:52:44.000                     : en:Hidden pursuits.
00:57:07.000                     : en:Her visitor.
01:01:20.000                     : en:Stay with me.
01:04:55.000                     : en:The set-up.
01:10:40.000                     : en:Mystery buff.
01:14:16.000                     : en:Smart guy's dilemma.
01:19:42.000                     : en:Bad girl.
01:23:54.000                     : en:Biker bar.
01:26:18.000                     : en:Dance for Napoleon.
01:29:31.000                     : en:Patsy's choice.
01:33:01.000                     : en:Wake up before you die.
01:36:44.000                     : en:Telling her future.
01:41:45.000                     : en:Gift to a daughter.
01:43:43.000                     : en:Switch upon switch.
01:47:35.000                     : en:Pushed from death.
01:48:58.000                     : en:Only in my dreams.
Скачать

Скачать торрент!

Как скачивать? · Что такое торрент? · Рейтинг и ограничения

Сайт не распространяет и не хранит электронные версии произведений, а лишь предоставляет доступ к создаваемому пользователями каталогу ссылок на торрент-файлы, которые содержат только списки хеш-сумм

[Профиль] [ЛС]
Показать сообщения:    
Ответить на тему

Текущее время: Сегодня 05:59

Часовой пояс: GMT + 4



Вы не можете начинать темы
Вы не можете отвечать на сообщения
Вы не можете редактировать свои сообщения
Вы не можете удалять свои сообщения
Вы не можете голосовать в опросах
Вы не можете прикреплять файлы к сообщениям
Вы не можете скачивать файлы