Блэйз / Blaze (Рон Шелтон / Ron Shelton) [1989, США, драма, биография, BDRemux 1080p] Dub + AVO (Михалев) + Sub Eng + Original Eng

Ответить на тему
 
Автор Сообщение

user ®

Стаж: 7 лет 7 месяцев

Сообщений: 20008

Пост Пост: #1 от 02-Сен-2013 05:40

[Цитировать]

Блэйз / Blaze
Страна: США
Жанр: драма, биография
Год выпуска: 1989
Продолжительность: 01:57:32
Перевод: Профессиональный (дублированный)
Перевод 2: Авторский (одноголосый закадровый) Михалев
Cубтитры: английские
Оригинальная аудиодорожка: английский
Режиссер: Рон Шелтон / Ron Shelton
В ролях: Пол Ньюман, Лолита Давидович, Джерри Хардин, Гейлард Сартейн, Джеффри ДеМанн, Гарленд Бантинг, Ричард Дженкинс, Брэндон Смит, Джей Шевалье, Роберт Вул
Описание: Нет страшнее и изощреннее оружия, чем женское коварство. С его помощью разбиваются не только сердца, но и судьбы, карьеры и даже жизни. Познакомившись со звездой стриптиза Блейз Стар, губернатор Луизианы Эрл Лонг и не подозревал, насколько сокрушительной для карьеры окажется его связь с этой блистательной и коварной женщиной. Политический скандал, который разразится вокруг их персон — это только верхушка айсберга.
Сэмпл: http://sendfile.su/859505
Тип релиза: BDRemux 1080p
Контейнер: MKV
Видео: 1920x1080, MPEG-4 AVC, 23.976 fps, ~19.0 Mbps
Аудио: Russian / 192 Кбит/сек, 48.0 КГц, 2 каналов, 16 бит, AC3 [дубляж]
Аудио 2: Russian / 192 Кбит/сек, 48.0 КГц, 2 каналов, 16 бит, AC3 [Михалев]
Аудио 3: English / 1816 Кбит/сек, 48.0 КГц, 2 каналов, 16 бит, DTS HDMA [DTS Core: 2.0 / 48 kHz / 1509 kbps / 16-bit]

MediaInfo

Общее
Уникальный идентификатор : 204837417877400302850200834265285569080 (0x9A1A406E3D087C02B023989843DAAA38)
Полное имя : C:\Users\к\Desktop\КИНО HD\Blaze.1989.x264.BluRay-Remux.1080p.mkv
Формат : Matroska
Версия формата : Version 4 / Version 2
Размер файла : 17,4 Гбайт
Продолжительность : 1 ч. 57 м.
Режим общего битрейта : Переменный
Общий поток : 21,2 Мбит/сек
Название фильма : Blaze (1989)
Дата кодирования : UTC 2013-08-28 10:11:20
Программа кодирования : mkvmerge v6.3.0 ('You can't stop me!') built on Jun 28 2013 20:09:41
Библиотека кодирования : libebml v1.3.0 + libmatroska v1.4.0
Видео
Идентификатор : 1
Формат : AVC
Формат/Информация : Advanced Video Codec
Профиль формата : High@L4.1
Параметр CABAC формата : Да
Параметр ReFrames формата : 4 кадра
Параметр GOP формата : M=3, N=24
Идентификатор кодека : V_MPEG4/ISO/AVC
Продолжительность : 1 ч. 57 м.
Вид битрейта : Переменный
Максимальный битрейт : 25,0 Мбит/сек
Ширина : 1920 пикселей
Высота : 1080 пикселей
Соотношение сторон : 16:9
Режим частоты кадров : Постоянный
Частота кадров : 23,976 кадра/сек
Стандарт вещания : NTSC
Цветовое пространство : YUV
Субдискретизация насыщенности : 4:2:0
Битовая глубина : 8 бит
Тип развёртки : Прогрессивная
Заголовок : Blaze (1989)
Язык : English
Default : Да
Forced : Нет
Основные цвета : BT.709
Характеристики трансфера : BT.709
Коэффициенты матрицы : BT.709
Аудио #1
Идентификатор : 2
Формат : AC-3
Формат/Информация : Audio Coding 3
Расширение режима : CM (complete main)
Параметр Endianness формата : Big
Идентификатор кодека : A_AC3
Продолжительность : 1 ч. 57 м.
Вид битрейта : Постоянный
Битрейт : 192 Кбит/сек
Каналы : 2 канала
Расположение каналов : Front: L R
Частота : 48,0 КГц
Битовая глубина : 16 бит
Метод сжатия : С потерями
Размер потока : 161 Мбайт (1%)
Заголовок : AC3 2 ch 192 kbps DUB
Язык : Russian
Default : Да
Forced : Нет
Аудио #2
Идентификатор : 3
Формат : AC-3
Формат/Информация : Audio Coding 3
Расширение режима : CM (complete main)
Параметр Endianness формата : Big
Идентификатор кодека : A_AC3
Продолжительность : 1 ч. 57 м.
Вид битрейта : Постоянный
Битрейт : 192 Кбит/сек
Каналы : 2 канала
Расположение каналов : Front: L R
Частота : 48,0 КГц
Битовая глубина : 16 бит
Метод сжатия : С потерями
Размер потока : 161 Мбайт (1%)
Заголовок : AC3 2 ch 192 kbps AVO (Михалев)
Язык : Russian
Default : Нет
Forced : Нет
Аудио #3
Идентификатор : 4
Формат : DTS
Формат/Информация : Digital Theater Systems
Профиль формата : MA / Core
Режим : 16
Параметр Endianness формата : Big
Идентификатор кодека : A_DTS
Продолжительность : 1 ч. 57 м.
Вид битрейта : Переменный
Битрейт : Неизвестно / 1509 Кбит/сек
Каналы : 2 канала
Расположение каналов : Front: L R
Частота : 48,0 КГц
Битовая глубина : 24 бит
Метод сжатия : Без потерь / Lossy
Заголовок : DTS-HD MA 2.0 48 kHz 1816 kbps
Язык : English
Default : Нет
Forced : Нет
Текст
Идентификатор : 5
Формат : PGS
Режим смешивания : zlib
Идентификатор кодека : S_HDMV/PGS
Идентификатор кодека/Информация : The same subtitle format used on BDs/HD-DVDs
Заголовок : English
Язык : English
Default : Нет
Forced : Нет
Меню
00:00:00.000 : en:Chapter 1
00:04:10.833 : en:Chapter 2
00:09:05.753 : en:Chapter 3
00:15:47.529 : en:Chapter 4
00:23:45.632 : en:Chapter 5
00:32:07.884 : en:Chapter 6
00:41:40.206 : en:Chapter 7
00:49:29.925 : en:Chapter 8
00:57:48.423 : en:Chapter 9
01:04:30.658 : en:Chapter 10
01:18:21.196 : en:Chapter 11
01:45:42.002 : en:Chapter 12

Скриншоты

Скачать

Скачать торрент!

Как скачивать? · Что такое торрент? · Рейтинг и ограничения

Сайт не распространяет и не хранит электронные версии произведений, а лишь предоставляет доступ к создаваемому пользователями каталогу ссылок на торрент-файлы, которые содержат только списки хеш-сумм

[Профиль] [ЛС]
Показать сообщения:    
Ответить на тему

Текущее время: Сегодня 18:09

Часовой пояс: GMT + 4



Вы не можете начинать темы
Вы не можете отвечать на сообщения
Вы не можете редактировать свои сообщения
Вы не можете удалять свои сообщения
Вы не можете голосовать в опросах
Вы не можете прикреплять файлы к сообщениям
Вы не можете скачивать файлы