Забегаловка / Diner (Барри Левинсон / Barry Levinson) [1982, США, драма, WEB-DL 720p] VO (Мазур) + MVO + Sub Eng + Original Eng

Ответить на тему
 
Автор Сообщение

user ®

Стаж: 7 лет 7 месяцев

Сообщений: 20008

Пост Пост: #1 от 01-Сен-2013 23:20

[Цитировать]

Забегаловка / Diner
Страна: США
Студия: Metro-Goldwyn-Mayer (MGM)
Жанр: драма
Год выпуска: 1982
Продолжительность: 01:49:57
Перевод 1: Одноголосый закадровый - Мазур
Перевод 2: Профессиональный (многоголосый закадровый) НТВ+
Cубтитры: английские
Оригинальная аудиодорожка: английский
Режиссер: Барри Левинсон / Barry Levinson
В ролях: Стив Гуттенберг /Steve Guttenberg/, Дэниэл Стерн /Daniel Stern/, Микки Рурк /Mickey Rourke/, Кевин Бэйкон /Kevin Bacon/, Тимоти Дэйли /Timothy Daly/, Эллен Баркин /Ellen Barkin/, Пол Райзер /Paul Reiser/, Кэтрин Даулинг, Майкл Такер /Michael Tucker/, Джессика Джеймс
Описание: Группа друзей собирается в местном кафе Балтиморы 1950-х годов и "торчит" там день за днем. Они обсуждают проблемы, связанные с женщинами, азартными играми и все то, что волнует и не дает жить спокойно, когда тебе перевалило за 20. Проблемы взросления и уходящего детства поданы дебютантом Барри Левинсоном с любовью и настоящим пониманием. Пожалуй, это синтез всех созданных позднее подражательных лент. Прекрасная картина. Первые роли в кино Эллен Баркин и Пола Райзера. (Иванов М.)
Альтернативное описание: Перед нами дебютный фильм очень хорошего и талантливого режиссёра Барри Левинсона. Я всегда знал, что это отличный режиссёр, хотя до этого смотрел только «Человек дождя». Но уже по тому фильму я понял, что его снял гениальный человек и я не ошибся.
Фильм «Забегаловка» я решил посмотреть, когда увидел актёрский состав, а в частности Мики Рурка и Кевина Бейкона. Особенно сильно было моё желание посмотреть на них молодых и на то как зарождались в них те великолепные актёры, которые удивляют нас сейчас.
Сюжет фильма прост, в нём нет ничего сложного или запутанного. Ребята сидят в любимой закусочной, кто то выпивает, ко то просто ест, а в это время идёт обсуждение различных тем, связанных с девушками, деньгами и т. д.
Игра Бейкона и Мики просто отличная, это очень хорошие их роли, да, может не лучшие, но сыграли они превосходно. Фильм как бы держится в одном ключе, на протяжение почти двух часов нам показывают либо закусочную, либо кинотеатр и мельком пролетают кадры где-то в других местах. Все действия (большинство) происходят под хорошую музыку того времени и очень приятно наблюдать за всем происходящем, особенно мне понравился момент и он оживил фильм к концу, это когда Билли решил поднять настроение публике в зале и начал играть на пианино что-то в стиле рок-н-рола и ритм-энд-блюза и всё сразу оживает.
Прекрасный дебют Барри и прекрасная работа актёрского состава, музыкального сопровождения и очень хороший, добрый незадачливый сюжет так и напрашиваются на оценку 10 из 10
--------------------------------------------------------------------------------
Оператор: Питер Сова /Peter Sova/
Сценарист: Бэрри Левинсон /Barry Levinson/
Продюсер: Джерри Уайнтрауб /Jerry Weintraub/
Монтажер: Стью Линдер /Stu Linder/
Композитор: Брюс Броуди, Иван Крал, Джо Тьюли
Художник: Леон Хэррис
Костюмы: Глория Грешэм /Gloria Gresham/
--------------------------------------------------
КИНОПОИСК. RU
РЕЙТИНГ -7.215 оценки: 561
7,1/10 from 11 483 users
--------------------------------------------------
----------------
СЭМПЛ
----------------
Тип релиза: WEB-DL 720p
Контейнер: MKV
Видео: 1272x720; 23.976 fps; ~ 3 867Kbps; 0.176 Bits/Pixel
Аудио 1: Russian - 48 kHz, AC3 Dolby Digital, (1 ch), ~ 192 kbps - Мазур
Аудио 2: Russian - 48 kHz, AC3 Dolby Digital, 2/0 (L,R) ch, ~192 kbps - МVO
Аудио 3: English - 48 kHz, AC3 Dolby Digital, 2/0 (L,R) ch, ~192 kbps - Original
Формат субтитров: English (*UTF-8)

MediaInfo

General
Complete name : F:\EXCLUZIVE=19\ЗАБЕГАЛОВКА=DINER.1982\Забегаловка.Diner.1982\Diner.1982.720p.WEB-DL=F4.mkv
Format : Matroska
File size : 3.48 GiB
Duration : 1h 49mn
Overall bit rate : 4 533 Kbps
Encoded date : UTC 2013-08-30 16:03:50
Writing application : mkvmerge v3.3.0 ('Language') built on Mar 24 2010 14:59:24
Writing library : libebml v0.8.0 + libmatroska v0.9.0
Video
ID : 1
Format : AVC
Format/Info : Advanced Video Codec
Format profile : High@L3.1
Format settings, CABAC : No
Format settings, ReFrames : 2 frames
Muxing mode : Container profile=Unknown@3.1
Codec ID : V_MPEG4/ISO/AVC
Duration : 1h 49mn
Bit rate : 3 867 Kbps
Width : 1 272 pixels
Height : 720 pixels
Display aspect ratio : 16:9
Frame rate : 23.976 fps
Color space : YUV
Chroma subsampling : 4:2:0
Bit depth : 8 bits
Scan type : Progressive
Bits/(Pixel*Frame) : 0.176
Stream size : 2.97 GiB (85%)
Title : Diner.1982.
Language : English
Color primaries : BT.709-5, BT.1361, IEC 61966-2-4, SMPTE RP177
Transfer characteristics : BT.709-5, BT.1361
Matrix coefficients : BT.709-5, BT.1361, IEC 61966-2-4 709, SMPTE RP177
Audio #1
ID : 2
Format : AC-3
Format/Info : Audio Coding 3
Mode extension : CM (complete main)
Codec ID : A_AC3
Duration : 1h 49mn
Bit rate mode : Constant
Bit rate : 192 Kbps
Channel(s) : 1 channel
Channel positions : Front: C
Sampling rate : 48.0 KHz
Stream size : 151 MiB (4%)
Title : AVO Мазур @ AC3 192 kbps
Language : Russian
Audio #2
ID : 3
Format : AC-3
Format/Info : Audio Coding 3
Mode extension : CM (complete main)
Codec ID : A_AC3
Duration : 1h 49mn
Bit rate mode : Constant
Bit rate : 192 Kbps
Channel(s) : 2 channels
Channel positions : Front: L R
Sampling rate : 48.0 KHz
Stream size : 151 MiB (4%)
Title : MVO @ AC3 192 kbps
Language : Russian
Audio #3
ID : 4
Format : AC-3
Format/Info : Audio Coding 3
Mode extension : CM (complete main)
Codec ID : A_AC3
Duration : 1h 49mn
Bit rate mode : Constant
Bit rate : 192 Kbps
Channel(s) : 2 channels
Channel positions : Front: L R
Sampling rate : 48.0 KHz
Stream size : 151 MiB (4%)
Title : Original @ AC3 192 kbps
Language : English
Text
ID : 5
Format : UTF-8
Codec ID : S_TEXT/UTF8
Codec ID/Info : UTF-8 Plain Text
Language : English
Menu
00:00:00.000 : en:Retrieving Fenwick.
00:04:32.000 : en:Diner-bound.
00:06:27.000 : en:Roadside prank.
00:08:42.000 : en:Makeout/sandwich.
00:12:06.000 : en:Betting men.
00:16:57.000 : en:Billy's home.
00:19:44.000 : en:Wake up, Eddie.
00:24:04.000 : en:Shrevie's TV...
00:26:23.000 : en:The pool hall.
00:28:03.000 : en:Getting disgusting...
00:33:14.000 : en:Even with Willard.
00:35:45.000 : en:The TV station.
00:37:28.000 : en:...you want it.
00:40:34.000 : en:Menu's left side.
00:45:48.000 : en:Jane Chisholm.
00:47:39.000 : en:Barbara's news.
00:50:07.000 : en:GE College Bowl.
00:52:51.000 : en:Don't touch!
00:56:32.000 : en:Comforting Betty.
00:58:29.000 : en:You have a...
01:00:14.000 : en:Seal analyzed.
01:01:06.000 : en:Manger scene.
01:03:40.000 : en:Behind bars.
01:05:56.000 : en:Eddie's confession.
01:07:57.000 : en:Their soap opera.
01:09:51.000 : en:Rough stuff.
01:15:51.000 : en:No sense of herself.
01:17:08.000 : en:The football test.
01:20:38.000 : en:Their date.
01:27:54.000 : en:The move.
01:29:39.000 : en:Paid in full.
01:31:34.000 : en:Always a dreamer.
01:33:11.000 : en:Picking up the beat.
01:37:27.000 : en:Didn't you know her?
01:38:54.000 : en:Wedding day.
01:43:32.000 : en:A toast.
01:46:11.000 : en:End Credits.

Скриншоты

, ,
, ,
, ,
Скачать

Скачать торрент!

Как скачивать? · Что такое торрент? · Рейтинг и ограничения

Сайт не распространяет и не хранит электронные версии произведений, а лишь предоставляет доступ к создаваемому пользователями каталогу ссылок на торрент-файлы, которые содержат только списки хеш-сумм

[Профиль] [ЛС]
Показать сообщения:    
Ответить на тему

Текущее время: Сегодня 20:17

Часовой пояс: GMT + 4



Вы не можете начинать темы
Вы не можете отвечать на сообщения
Вы не можете редактировать свои сообщения
Вы не можете удалять свои сообщения
Вы не можете голосовать в опросах
Вы не можете прикреплять файлы к сообщениям
Вы не можете скачивать файлы