Пропавший медальон / The Lost Medallion: The Adventures of Billy Stone (Билл Мюир / Bill Muir) [2013, США, семейный, приключения, HDRip-AVC] Sub Rus + Original Eng

Ответить на тему
 
Автор Сообщение

user ®

Стаж: 7 лет 7 месяцев

Сообщений: 20008

Пост Пост: #1 от 01-Сен-2013 23:20

[Цитировать]

Пропавший медальон / The Lost Medallion: The Adventures of Billy Stone
Страна: США
Жанр: семейный, приключения
Год выпуска: 2013
Продолжительность: 01:38:10
Перевод: Субтитры (Алексей Крылов aka rrrtttsss aka prostotak)
Cубтитры: русские, английские
Оригинальная аудиодорожка: английский
Режиссер: Билл Мюир / Bill Muir
В ролях: Билли Ангер, Сэмми Хэнретти, Джеймс Хонг, Дженсен Панеттьере, Уильям Коркери, Алекс Кендрик, Марк Дакаскос, Лайза Ло Чичеро, Хол Радник, Сидни С. Люфау, Тия Сиркар, Дженнифер Родс и др.
Описание: Дэниэл заезжает в приют, чтобы передать игрушки для детей, но те уговаривают что-нибудь им рассказать. Захваченный врасплох, он придумывает на ходу увлекательную историю, главными героями которой становятся дети, недавно попавшие в приют - молчаливый мальчик по имени Билли, нагловатый паренек по имени Хуко и девочка по имени Элли. Их ждут захватывающие приключения и тайны, раскрыв которые они должны будут спасти целый остров и его жителей от злого властелина...
Доп. информация: Информация о фильме на IMDB - http://www.imdb.com/title/tt1390539
Релиз кинопортала Близзардкид.
От переводчика: натуральная америкосовская фигня, нравоучительная и в конце даже чуть религиозная, но так уж получилось, что попросили ее перевести для знакомых детей, поэтому, чтоб добру не пропадать, выкладываю тут. В принципе смотреть можно, если не ожидать от фильма чего-то экстраординарного и какой-то сюжетной логики. Но дитЯм вполне нравится.
Сэмпл: http://multi-up.com/899318
Качество видео: HDRip-AVC (исходник неизвестен)
Формат видео: MKV
Видео: AVC, 720x302 (2.40:1), 23.976 fps, 2000 kbps, 0.38 bit/pixel
Аудио: Dolby AC3, 48000Hz 6 ch, 384 kbps, 16 bit
Формат субтитров: softsub (SRT)

MediaInfo

Общее
Уникальный идентификатор : 281183093647741782468355359351851128058 (0xD389E4DC9AD6647D100CB0DF4B4314FA)
Полное имя : H:\SEED\The Lost Medallion - The Adventures of Billy Stone (2013) rus\The Lost Medallion - The Adventures of Billy Stone (2013) rus.mkv
Формат : Matroska
Версия формата : Version 2
Размер файла : 1,64 Гбайт
Продолжительность : 1 ч. 38 м.
Общий поток : 2389 Кбит/сек
Программа кодирования : HandBrake 0.9.9
Библиотека кодирования : libmkv 0.6.5
Видео
Идентификатор : 1
Формат : AVC
Формат/Информация : Advanced Video Codec
Профиль формата : High@L4.1
Параметр CABAC формата : Да
Параметр ReFrames формата : 5 кадров
Идентификатор кодека : V_MPEG4/ISO/AVC
Продолжительность : 1 ч. 38 м.
Битрейт : 2000 Кбит/сек
Ширина : 720 пикселей
Высота : 302 пикселя
Соотношение сторон : 2,40:1
Режим частоты кадров : Постоянный
Частота кадров : 23,976 кадра/сек
Цветовое пространство : YUV
Субдискретизация насыщенности : 4:2:0
Битовая глубина : 8 бит
Тип развёртки : Прогрессивная
Бит/(Пиксели*Кадры) : 0.384
Размер потока : 1,34 Гбайт (82%)
Библиотека кодирования : x264 core 130 r2273 b3065e6
Настройки программы : cabac=1 / ref=5 / deblock=1:0:0 / analyse=0x3:0x113 / me=umh / subme=8 / psy=1 / psy_rd=1.00:0.00 / mixed_ref=1 / me_range=16 / chroma_me=1 / trellis=1 / 8x8dct=1 / cqm=0 / deadzone=21,11 / fast_pskip=1 / chroma_qp_offset=-2 / threads=12 / lookahead_threads=2 / sliced_threads=0 / nr=0 / decimate=1 / interlaced=0 / bluray_compat=0 / constrained_intra=0 / bframes=3 / b_pyramid=2 / b_adapt=2 / b_bias=0 / direct=3 / weightb=1 / open_gop=0 / weightp=2 / keyint=240 / keyint_min=24 / scenecut=40 / intra_refresh=0 / rc_lookahead=50 / rc=2pass / mbtree=1 / bitrate=2000 / ratetol=1.0 / qcomp=0.60 / qpmin=0 / qpmax=69 / qpstep=4 / cplxblur=20.0 / qblur=0.5 / vbv_maxrate=62500 / vbv_bufsize=78125 / nal_hrd=none / ip_ratio=1.40 / aq=1:1.00
Язык : English
Default : Да
Forced : Нет
Основные цвета : BT.709
Характеристики трансфера : BT.709
Коэффициенты матрицы : BT.709
Аудио
Идентификатор : 2
Формат : AC-3
Формат/Информация : Audio Coding 3
Расширение режима : CM (complete main)
Параметр Endianness формата : Big
Идентификатор кодека : A_AC3
Продолжительность : 1 ч. 38 м.
Вид битрейта : Постоянный
Битрейт : 384 Кбит/сек
Каналы : 6 каналов
Расположение каналов : Front: L C R, Side: L R, LFE
Частота : 48,0 КГц
Битовая глубина : 16 бит
Метод сжатия : С потерями
Размер потока : 270 Мбайт (16%)
Язык : English
Default : Да
Forced : Нет
Текст
Идентификатор : 3
Формат : UTF-8
Идентификатор кодека : S_TEXT/UTF8
Идентификатор кодека/Информация : UTF-8 Plain Text
Язык : English
Default : Нет
Forced : Нет

Образец субтитров

1
00:00:18,538 --> 00:00:31,138
ПРОПАВШИЙ МЕДАЛЬОН
2
00:01:19,539 --> 00:01:21,499
Ох, смотри, ты испачкалась в песке.
3
00:01:21,499 --> 00:01:22,751
Все в порядке?
4
00:01:31,718 --> 00:01:32,552
Дэниэл!
5
00:01:32,552 --> 00:01:34,012
Здравствуйте, мисс Салли!
6
00:01:34,012 --> 00:01:35,555
Как я рада видеть тебя!
7
00:01:35,555 --> 00:01:37,640
Я тоже.
8
00:01:37,640 --> 00:01:38,850
Я привез кое-какие
вещи для детей.
9
00:01:38,850 --> 00:01:39,684
Можно я их просто оставлю
на столе?
10
00:01:39,684 --> 00:01:42,520
Ой, спасибо, Дэниэл!
Это замечательно!
11
00:01:42,520 --> 00:01:44,147
Останешься ненадолго?
12
00:01:44,147 --> 00:01:46,691
Мне нужно ехать на стадион,
на игру.
13
00:01:46,691 --> 00:01:47,817
За выход в финал?
14
00:01:47,817 --> 00:01:49,194
Да уж, скорее, за невыход.
15
00:01:49,194 --> 00:01:50,862
Да ладно, посмотри на себя.
16
00:01:52,572 --> 00:01:54,532
Как у вас дела?
17
00:01:54,532 --> 00:01:57,744
В порядке.
18
00:01:57,744 --> 00:02:01,122
Я вижу тут у вас
появились новые дети.
19
00:02:01,122 --> 00:02:05,418
Да, привезли еще троих
из других детских домов.
20
00:02:05,418 --> 00:02:07,837
У меня сердце болит
за них.

Скриншот c названием фильма

Скачать

Скачать торрент!

Как скачивать? · Что такое торрент? · Рейтинг и ограничения

Сайт не распространяет и не хранит электронные версии произведений, а лишь предоставляет доступ к создаваемому пользователями каталогу ссылок на торрент-файлы, которые содержат только списки хеш-сумм

[Профиль] [ЛС]
Показать сообщения:    
Ответить на тему

Текущее время: Сегодня 05:51

Часовой пояс: GMT + 4



Вы не можете начинать темы
Вы не можете отвечать на сообщения
Вы не можете редактировать свои сообщения
Вы не можете удалять свои сообщения
Вы не можете голосовать в опросах
Вы не можете прикреплять файлы к сообщениям
Вы не можете скачивать файлы