Пропавшая грамота (Валентина Брумберг) [1945 г., рисованный мультфильм, DVB]

Ответить на тему
 
Автор Сообщение

user ®

Стаж: 7 лет 7 месяцев

Сообщений: 20008

Пост Пост: #1 от 01-Сен-2013 20:10

[Цитировать]

Пропавшая грамота
Жанр: рисованный мультфильм
Год выпуска: 1945
Продолжительность: 00:40:09
Режиссёр: Валентина Брумберг
Описание: мультфильм о том, как казак отправился в Петербург отвезти грамоту Царице. Целая цепь приключений и препятствий возникает на его пути, но казак преодолевает их и достигает цели . Жарким августом, к царице, с гетманской грамотой отправляют в столицу казака. По дороге заводит он знакомство с разгульным запорожцем. На привале новый друг рассказал, что продал душу дьяволу и ждёт расплату. Ночью казак не стал ложиться спать, решил посмотреть, что дальше будет. Как стемнело, на место привала пришёл чёрт, увёл лошадь, а с ней и царскую грамоту. Пришлось гонцу искать пропажу в переполненном нечистой силой лесу. На утро распрощался казак со знакомцем и, уже без остановок, помчался в Петербург ...
Доп. информация: по одноименной повести Н.В. Гоголя.

Трансляция спутникового канала: "Карусель"
Качество видео: DVB
Формат видео: MPEG-PS
Видео: MPEG2 Video, 720x576, 25 fps, 3500 kbps
Аудио: MPEG Audio, 2 сh, 48 kHz, 192 kbps

MediaInfo

D:\Пропавшая грамота. (1945)_DVB by SLuMeP.mpg
General
Complete name : D:\Пропавшая грамота. (1945)_DVB by SLuMeP.mpg
Format : MPEG-PS
File size : 1.06 GiB
Duration : 40mn 9s
Overall bit rate mode : Variable
Overall bit rate : 3 771 Kbps
Writing library : (c) 1998-2010 Womble Multimedia, Inc. / MPEG Video Wizard DVD 5.0.0.114 (01/2010) / Apr 20 2010
Video #224
ID : 224 (0xE0)
Format : MPEG Video
Format version : Version 2
Format profile : Main@Main
Format settings, BVOP : Yes
Format settings, Matrix : Custom
Duration : 40mn 9s
Bit rate mode : Variable
Bit rate : 3 504 Kbps
Maximum bit rate : 5 000 Kbps
Width : 720 pixels
Height : 576 pixels
Display aspect ratio : 4:3
Frame rate : 25.000 fps
Standard : PAL
Color space : YUV
Chroma subsampling : 4:2:0
Bit depth : 8 bits
Scan type : Interlaced
Scan order : Top Field First
Compression mode : Lossy
Bits/(Pixel*Frame) : 0.338
Stream size : 1 006 MiB (93%)
Writing library : (c) 1998-2010 Womble Multimedia, Inc. / MPEG Video Wizard DVD 5.0.0.114 (01/2010) / Apr 20 2010
Audio #192
ID : 192 (0xC0)
Format : MPEG Audio
Format version : Version 1
Format profile : Layer 2
Duration : 40mn 9s
Bit rate mode : Constant
Bit rate : 192 Kbps
Channel(s) : 2 channels
Sampling rate : 48.0 KHz
Compression mode : Lossy
Stream size : 55.1 MiB (5%)
Menu

Скриншоты

Скачать

Скачать торрент!

Как скачивать? · Что такое торрент? · Рейтинг и ограничения

Сайт не распространяет и не хранит электронные версии произведений, а лишь предоставляет доступ к создаваемому пользователями каталогу ссылок на торрент-файлы, которые содержат только списки хеш-сумм

[Профиль] [ЛС]
Показать сообщения:    
Ответить на тему

Текущее время: Сегодня 10:00

Часовой пояс: GMT + 4



Вы не можете начинать темы
Вы не можете отвечать на сообщения
Вы не можете редактировать свои сообщения
Вы не можете удалять свои сообщения
Вы не можете голосовать в опросах
Вы не можете прикреплять файлы к сообщениям
Вы не можете скачивать файлы