Богиня / Goddess (Марк Лампрелл / Mark Lamprell) [2013, Австралия, мюзикл, мелодрама, комедия, HDRip] Dub

Ответить на тему
 
Автор Сообщение

user ®

Стаж: 7 лет 7 месяцев

Сообщений: 20008

Пост Пост: #1 от 01-Сен-2013 17:05

[Цитировать]

Богиня / Goddess«Из домохозяек в звёзды» Страна: Австралия
Жанр: мюзикл, мелодрама, комедия
Год выпуска: 2013
Продолжительность: 01:43:50
Перевод: Профессиональный (дублированный)
Cубтитры: нет
Оригинальная аудиодорожка: нет-Режиссер: Марк Лампрелл / Mark Lamprell
В ролях: Лора Мишель Келли, Ронан Китинг, Магда Шубански, Дастин Клер, Хьюго Джонстон-Барт, Тэмсин Кэрролл, Корин Грант, Пиа Миранда, Натали Трэн, Камерон Лион-Описание: Элсбет Диккенс — домохозяйка и мама двух чудесных близнецов. Её муж Джеймс работает в Гринпис и постоянно отсутствует дома, спасая то китов, то осьминогов. Чтобы между ними была какая то связь, Джеймс установил дома веб-камеру. Однажды Элсбет решила спеть перед ней песню, не зная, что трансляция идёт в интернет, и на следующий день проснулась знаменитой. Ей предложило контракт крупное рекламное агентство, и она уехала в столицу, оставив близнецов на няню. Столичная жизнь полна соблазнов, Элсбет ждёт мировой контракт. Что она выберет — славу и деньги или любовь мужа, которого никогда нет дома?-Доп. информация: премьера (мир) 14 марта 2013

-Качество видео: HDRip
Формат видео: AVI
Видео: 720x304 (2.35:1), 24 fps, XVID ~1472 kbps avg, 0.280 bit/pixel
Аудио: 48 kHz, AC3, 6 ch, 448.00 kbps Constant

MediaInfo

Общее
Полное имя : E:\Boginya.2013.D.HDRip.avi
Формат : AVI
Формат/Информация : Audio Video Interleave
Размер файла : 1,46 Гбайт
Продолжительность : 1 ч. 43 м.
Общий поток : 2009 Кбит/сек
Программа кодирования : VirtualDubModRus 1.5.10.2 (build 2542/release)
Библиотека кодирования : VirtualDubMod build 2542/release
Видео
Идентификатор : 0
Формат : MPEG-4 Visual
Профиль формата : Advanced Simple@L5
Параметр BVOP формата : 1
Параметр QPel формата : Нет
Параметр GMC формата : Без точки перехода
Параметр матрицы формата : Выборочная
Идентификатор кодека : XVID
Идентификатор кодека/Подсказка : XviD
Продолжительность : 1 ч. 43 м.
Битрейт : 1472 Кбит/сек
Ширина : 720 пикселей
Высота : 304 пикселя
Соотношение сторон : 2,35:1
Частота кадров : 24,000 кадра/сек
Цветовое пространство : YUV
Субдискретизация насыщенности : 4:2:0
Битовая глубина : 8 бит
Тип развёртки : Прогрессивная
Метод сжатия : С потерями
Бит/(Пиксели*Кадры) : 0.280
Размер потока : 1,07 Гбайт (73%)
Библиотека кодирования : XviD 65
Аудио
Идентификатор : 1
Формат : AC-3
Формат/Информация : Audio Coding 3
Расширение режима : CM (complete main)
Параметр Endianness формата : Big
Идентификатор кодека : 2000
Продолжительность : 1 ч. 43 м.
Вид битрейта : Постоянный
Битрейт : 448 Кбит/сек
Каналы : 6 каналов
Расположение каналов : Front: L C R, Side: L R, LFE
Частота : 48,0 КГц
Битовая глубина : 16 бит
Метод сжатия : С потерями
Размер потока : 333 Мбайт (22%)
Выравнивание : Разделение по промежуткам

Скриншоты

Скачать

Скачать торрент!

Как скачивать? · Что такое торрент? · Рейтинг и ограничения

Сайт не распространяет и не хранит электронные версии произведений, а лишь предоставляет доступ к создаваемому пользователями каталогу ссылок на торрент-файлы, которые содержат только списки хеш-сумм

[Профиль] [ЛС]
Показать сообщения:    
Ответить на тему

Текущее время: Сегодня 11:55

Часовой пояс: GMT + 4



Вы не можете начинать темы
Вы не можете отвечать на сообщения
Вы не можете редактировать свои сообщения
Вы не можете удалять свои сообщения
Вы не можете голосовать в опросах
Вы не можете прикреплять файлы к сообщениям
Вы не можете скачивать файлы