Незнакомец внутри / The Stranger Within (Адам Неутцскай-Вульф / Adam Neuttsskay-Wulf) [2013, Дания, триллер, DVDRip] MVO (Лицензия)

Ответить на тему
 
Автор Сообщение

user ®

Стаж: 7 лет 7 месяцев

Сообщений: 20008

Пост Пост: #1 от 01-Сен-2013 13:55

[Цитировать]

Незнакомец внутри / The Stranger Within
Страна: Дания
Жанр: триллер
Год выпуска: 2013
Продолжительность: 01:26:50
Перевод: Профессиональный (многоголосый закадровый) Лицензия
Cубтитры: нет
Оригинальная аудиодорожка: нет
Режиссер: Адам Неутцскай-Вульф / Adam Neuttsskay-Wulf
В ролях: Эстелла Уоррен, Уильям Болдуин, Катя Винтер, Сара Батлер, Джеффри Пирс, Ким Бодния, Клер Росс-Браун, Вивьенн МакКи, Оле Дюпон
Описание: Известная актриса Эмили Мур и ее муж психиатр по имени Роберт, решают отдохнуть на удаленном средиземноморском острове. Но в первую же ночь в их дом приходит молодая женщина в истерике от смерти ее парня…

Сэмпл: http://multi-up.com/899220
Качество видео: DVDRip (Исх. DVD9 R5)
Формат видео: AVI
Видео: 720x304 (2.37:1), 25 fps, XviD build 50 ~1862 kbps avg, 0.34 bit/pixel
Аудио: 48 kHz, AC3 Dolby Digital, 3/2 (L,C,R,l,r) + LFE ch, ~384.00 kbps avg

MediaInfo

Общее
Полное имя : S:\Фильмы\Незнакомец внутри. 2013. DVDRip..avi
Формат : AVI
Формат/Информация : Audio Video Interleave
Размер файла : 1,37 Гбайт
Продолжительность : 1 ч. 26 м.
Общий поток : 2256 Кбит/сек
Программа кодирования : VirtualDubMod 1.5.10.3 | www.virtualdub-fr.org || (build 2550/release)
Библиотека кодирования : VirtualDubMod build 2550/release
Видео
Идентификатор : 0
Формат : MPEG-4 Visual
Профиль формата : Advanced Simple@L5
Параметр BVOP формата : 2
Параметр QPel формата : Нет
Параметр GMC формата : Без точки перехода
Параметр матрицы формата : Default (MPEG)
Идентификатор кодека : XVID
Идентификатор кодека/Подсказка : XviD
Продолжительность : 1 ч. 26 м.
Битрейт : 1862 Кбит/сек
Ширина : 720 пикс.
Высота : 304 пикс.
Соотношение сторон : 2,35:1
Частота кадров : 25,000 кадр/сек
Цветовое пространство : YUV
Подвыборка цветности : 4:2:0
Битовая глубина : 8 бит
Тип развёртки : Прогрессивная
Метод сжатия : С потерями
Бит/(Пиксели*Кадры) : 0.340
Размер потока : 1,13 Гбайт (83%)
Библиотека кодирования : XviD 1.2.1 (UTC 2008-12-04)
Аудио
Идентификатор : 1
Формат : AC-3
Формат/Информация : Audio Coding 3
Расширение режима : CM (complete main)
Идентификатор кодека : 2000
Продолжительность : 1 ч. 26 м.
Вид битрейта : Постоянный
Битрейт : 384 Кбит/сек
Каналы : 6 каналов
Расположение каналов : Front: L C R, Side: L R, LFE
Частота : 48,0 КГц
Битовая глубина : 16 бит
Метод сжатия : С потерями
Размер потока : 238 Мбайт (17%)
Выравнивание : Разделение по промежуткам
Продолжительность промежутка : 40 мс. (1,00 видеокадр)
Время предзагрузки промежутка : 500 ms

Скриншот c названием фильма

Скриншоты

Скачать

Скачать торрент!

Как скачивать? · Что такое торрент? · Рейтинг и ограничения

Сайт не распространяет и не хранит электронные версии произведений, а лишь предоставляет доступ к создаваемому пользователями каталогу ссылок на торрент-файлы, которые содержат только списки хеш-сумм

[Профиль] [ЛС]
Показать сообщения:    
Ответить на тему

Текущее время: Сегодня 09:52

Часовой пояс: GMT + 4



Вы не можете начинать темы
Вы не можете отвечать на сообщения
Вы не можете редактировать свои сообщения
Вы не можете удалять свои сообщения
Вы не можете голосовать в опросах
Вы не можете прикреплять файлы к сообщениям
Вы не можете скачивать файлы