Франкенвини / Frankenweenie (Тим Бёртон / Tim Burton) [2012, мультфильм, ужасы, фантастика, комедия, семейный, BDRip-AVC] Dub + Original (Eng) + Sub (Rus, Eng)

Ответить на тему
 
Автор Сообщение

user ®

Стаж: 13 лет

Сообщений: 15041

Пост Пост: #1 от 01-Сен-2013 01:20

[Цитировать]

Франкенвини / Frankenweenie- Страна: США
Жанр: мультфильм, ужасы, фантастика, комедия, семейный
Продолжительность: 1h 26mn 56s
Год выпуска: 2012
Перевод: Профессиональный (дублированный)
Оригинал: английский Отдельным файлом
Cубтитры: Rus (Forced), Rus, Eng SRT
Режиссёр: Тим Бёртон / Tim Burton
Роли озвучивали: Чарли Тахэн, Кэтрин О’Хара, Мартин Шорт, Мартин Ландау, Аттикус Шаффер, Вайнона Райдер, Роберт Капрон, Джеймс Хироюки Лиао, Кончата Феррелл, Том Кенни
Роли дублировали: Давид Авагян, Аделина Червякова, Екатерина Гороховская, Владимир Ермилов, Олег Фёдоров-ОписаниеОбожаемый мальчиком Виктором пес Спарки погибает в результате несчастного случая. Мальчик, не желая мириться с потерей друга, призывает науку на помощь и…возвращает питомца к жизни! Казалось бы, все не так уж плохо, но когда Спарки сбегает от Виктора, его друзья, родители, учителя и жители городка узнают, что возвращение к жизни домашнего питомца может повлечь за собой неожиданные и даже ужасные последствия!-IMDb: 7.00 (42 191)

Сэмпл
Качество: BDRip -AVC [url=http://***/forum/viewtopic.php?t=4501752]Blu-Ray 1080p[/url]
Формат: MKV
Видео: AVC 2020 Kbps 1088 x 592 (1.838) 23.976 fps
Аудио: AC-3 384 Kbps 6 channels, 48.0 KHz Rus Dub
Аудио 2: AC-3 384 Kbps 6 channels, 48.0 KHz Eng Отдельным файлом
Субтитры: Rus (Forced), Rus, Eng SRT

Награды и номинации

MI | Log

Log

raw [info]: 1088x592p 1:1 @ 2500000/104271 fps (cfr)
x264 [info]: using SAR=1/1
x264 [info]: using cpu capabilities: MMX2 SSE2Fast SSSE3 SSE4.2 AVX
x264 [info]: profile High, level 4.1
x264 [info]: frame I:1348 Avg QP:13.44 size:101487
x264 [info]: frame P:34206 Avg QP:17.57 size: 19213
x264 [info]: frame B:89525 Avg QP:22.41 size: 5845
x264 [info]: consecutive B-frames: 5.8% 5.6% 9.4% 38.4% 16.8% 16.2% 3.8% 2.6% 1.3%
x264 [info]: mb I I16..4: 11.4% 55.7% 33.0%
x264 [info]: mb P I16..4: 0.4% 4.5% 1.7% P16..4: 29.9% 26.8% 9.0% 2.2% 0.5% skip:25.1%
x264 [info]: mb B I16..4: 0.0% 0.9% 0.4% B16..8: 28.4% 10.4% 1.9% direct: 2.1% skip:55.9% L0:43.3% L1:48.7% BI: 8.0%
x264 [info]: 8x8 transform intra:64.6% inter:53.5%
x264 [info]: direct mvs spatial:95.8% temporal:4.2%
x264 [info]: coded y,uvDC,uvAC intra: 91.2% 31.3% 15.3% inter: 12.3% 2.3% 0.3%
x264 [info]: i16 v,h,dc,p: 10% 19% 21% 49%
x264 [info]: i8 v,h,dc,ddl,ddr,vr,hd,vl,hu: 9% 8% 5% 10% 15% 14% 14% 12% 13%
x264 [info]: i4 v,h,dc,ddl,ddr,vr,hd,vl,hu: 9% 8% 4% 10% 16% 14% 14% 12% 14%
x264 [info]: i8c dc,h,v,p: 20% 61% 14% 5%
x264 [info]: Weighted P-Frames: Y:5.9% UV:1.0%
x264 [info]: ref P L0: 50.9% 8.5% 15.0% 6.1% 4.7% 3.9% 3.1% 1.7% 1.5% 1.5% 1.3% 1.5% 0.4% 0.0%
x264 [info]: ref B L0: 74.7% 10.0% 5.5% 2.5% 2.0% 1.6% 1.4% 0.8% 0.8% 0.5% 0.3%
x264 [info]: ref B L1: 92.2% 7.8%
x264 [info]: kb/s:2020.00
x264 [total]: encoded 125079 frames, 10.84 fps, 2020.00 kb/s
Format                                   : MatroskaFormat version                           : Version 4 / Version 2File size                                : 1.46 GiBDuration                                 : 1h 26mnOverall bit rate                         : 2 406 KbpsEncoded date                             : UTC 2013-08-31 16:38:41Writing application                      : mkvmerge v6.2.0 ('Promised Land') built on Apr 28 2013 12:22:01Writing library                          : libebml v1.3.0 + libmatroska v1.4.0
VideoID : 1Format : AVCFormat/Info : Advanced Video CodecFormat profile : High@L4.1Format settings, CABAC : YesFormat settings, ReFrames : 12 framesCodec ID : V_MPEG4/ISO/AVCDuration : 1h 26mnBit rate : 2 020 KbpsWidth : 1 088 pixelsHeight : 592 pixelsDisplay aspect ratio : 1.85:1Frame rate mode : ConstantFrame rate : 23.976 fpsColor space : YUVChroma subsampling : 4:2:0Bit depth : 8 bitsScan type : ProgressiveBits/(Pixel*Frame) : 0.131Stream size : 1.20 GiB (82%)Writing library : x264 core 135 r2345 f0c1c53Encoding settings : cabac=1 / ref=12 / deblock=1:-2:-1 / analyse=0x3:0x133 / me=umh / subme=11 / psy=1 / psy_rd=1.00:0.05 / mixed_ref=1 / me_range=48 / chroma_me=1 / trellis=2 / 8x8dct=1 / cqm=0 / deadzone=21,11 / fast_pskip=0 / chroma_qp_offset=-3 / threads=12 / lookahead_threads=2 / sliced_threads=0 / nr=0 / decimate=1 / interlaced=0 / bluray_compat=0 / constrained_intra=0 / bframes=8 / b_pyramid=2 / b_adapt=2 / b_bias=0 / direct=3 / weightb=1 / open_gop=0 / weightp=2 / keyint=250 / keyint_min=23 / scenecut=40 / intra_refresh=0 / rc_lookahead=60 / rc=2pass / mbtree=1 / bitrate=2020 / ratetol=1.0 / qcomp=0.60 / qpmin=0 / qpmax=69 / qpstep=4 / cplxblur=20.0 / qblur=0.5 / ip_ratio=1.40 / aq=1:1.00Language : EnglishDefault : YesForced : No
AudioID : 2Format : AC-3Format/Info : Audio Coding 3Mode extension : CM (complete main)Format settings, Endianness : BigCodec ID : A_AC3Duration : 1h 26mnBit rate mode : ConstantBit rate : 384 KbpsChannel(s) : 6 channelsChannel positions : Front: L C R, Side: L R, LFESampling rate : 48.0 KHzBit depth : 16 bitsCompression mode : LossyStream size : 239 MiB (16%)Title : Rus (Dub)Language : RussianDefault : YesForced : No
Text #1ID : 3Format : UTF-8Codec ID : S_TEXT/UTF8Codec ID/Info : UTF-8 Plain TextTitle : RUS FORCEDLanguage : RussianDefault : NoForced : No
Text #2ID : 4Format : UTF-8Codec ID : S_TEXT/UTF8Codec ID/Info : UTF-8 Plain TextTitle : RusLanguage : RussianDefault : NoForced : No
Text #3ID : 5Format : UTF-8Codec ID : S_TEXT/UTF8Codec ID/Info : UTF-8 Plain TextTitle : EngLanguage : EnglishDefault : NoForced : No

Скриншоты

Скачать

Скачать торрент! Франкенвини / Frankenweenie (Тим Бёртон / Tim Burton) [2012, мультфильм, ужасы, фантастика, комедия, семейный, BDRip-AVC] Dub + Original (Eng) + Sub (Rus, Eng)

Как скачивать? · Что такое торрент? · Рейтинг и ограничения

Сайт не распространяет и не хранит электронные версии произведений, а лишь предоставляет доступ к создаваемому пользователями каталогу ссылок на торрент-файлы, которые содержат только списки хеш-сумм

[Профиль] [ЛС]
Показать сообщения:    
Ответить на тему

Текущее время: Сегодня 04:30

Часовой пояс: GMT + 4



Вы не можете начинать темы
Вы не можете отвечать на сообщения
Вы не можете редактировать свои сообщения
Вы не можете удалять свои сообщения
Вы не можете голосовать в опросах
Вы не можете прикреплять файлы к сообщениям
Вы не можете скачивать файлы