Принц Щелкунчик / The Nutcracker Prince (Пол Шибли / Paul Schibli) [1990, мультфильм, фэнтези, приключения, семейный, DVDRip] 2xDub + Eng

Ответить на тему
 
Автор Сообщение

user ®

Стаж: 12 лет

Сообщений: 15145

Пост Пост: #1 от 31-Авг-2013 22:10

[Цитировать]

Принц Щелкунчик / The Nutcracker Prince
Страна: Канада
Жанр: мультфильм, фэнтези, приключения, семейный
Продолжительность: 01:13:01
Год выпуска: 1990
Перевод 1: Дублированный (Екатеринбург Арт)
Перевод 2: Дублированный (Селена Интернешенл по заказу ОРТ)
Русские субтитры: нет
Режиссёр: Пол Шибли / Paul Schibli
Роли озвучивали: Кифер Сазерленд, Меган Фоллоуз, Майк МакДональд, Питер О’Тул, Филлис Диллер, Питер Борецки, Лен Карлсон, Марвин Голднар, Линн Горман, Кейт Хэмпшир
Описание: Прелестная маленькая девочка... Таинственный игрушечный мастер... Блестящий рождественский праздник... Деревянный солдатик, хранящий потрясающую тайну... Чудесное фантастическое путешествие в Кукольное царство... Изумительная сказка с несравненной музыкой, полная задора, веселья и ярких красок...
В канун Рождества крестный подарил маленькой Кларе деревянного Щелкунчика, одетого в солдатскую форму, и рассказал необыкновенную историю о своем подарке. Когда-то Щелкунчик был мальчиком такого же возраста, как Клара. Но злая колдунья Мышильда превратила его в деревянную игрушку, а ее сын Мышиный король поклялся уничтожить Щелкунчика. Чтобы снять заклятие, отважный деревянный солдатик должен победить Мышиного короля и завоевать любовь Клары...
Доп. информация:
За подготовку звуковой дорожки от ЕА спасибо yulichka100
За подготовку звуковой дорожки от ОРТ спасибо Home Video
Семпл: http://multi-up.com/899032
Качество: DVDRip
Формат: AVI
Видео: 640x480, 23,976 fps, ~2267 kbps avg, 0.308 bit/pixel
Аудио #1: 48 kHz, AC3 Dolby Digital, 2/0 (L,R) ch, ~192 kbps |ЕА|
Аудио #2: 48 kHz, AC3 Dolby Digital, 2/0 (L,R) ch, ~192 kbps |ОРТ|
Аудио #3: 48 kHz, AC3 Dolby Digital, 2/0 (L,R) ch, ~192 kbps |English|
Субтитры: отсутствуют

Подробные технические данные

GeneralComplete name : D:\Prints.Schelkunchik.1990.XviD.DVDRip.aviFormat : AVIFormat/Info : Audio Video InterleaveFile size : 1.46 GiBDuration : 1h 13mnOverall bit rate : 2 862 KbpsWriting application : VirtualDubMod 1.5.10.2 (build 2540/release)Writing library : VirtualDubMod build 2540/release
VideoID : 0Format : MPEG-4 VisualFormat profile : Advanced Simple@L5Format settings, BVOP : 2Format settings, QPel : YesFormat settings, GMC : No warppointsFormat settings, Matrix : Default (H.263)Codec ID : XVIDCodec ID/Hint : XviDDuration : 1h 13mnBit rate : 2 267 KbpsWidth : 640 pixelsHeight : 480 pixelsDisplay aspect ratio : 4:3Frame rate : 23.976 fpsColor space : YUVChroma subsampling : 4:2:0Bit depth : 8 bitsScan type : ProgressiveCompression mode : LossyBits/(Pixel*Frame) : 0.308Stream size : 1.16 GiB (79%)Writing library : XviD 1.2.1 (UTC 2008-12-04)
Audio #1ID : 1Format : AC-3Format/Info : Audio Coding 3Mode extension : CM (complete main)Format settings, Endianness : BigCodec ID : 2000Duration : 1h 13mnBit rate mode : ConstantBit rate : 192 KbpsChannel count : 2 channelsChannel positions : Front: L RSampling rate : 48.0 KHzBit depth : 16 bitsCompression mode : LossyStream size : 100 MiB (7%)Alignment : Split accross interleavesInterleave, duration : 42 ms (1.00 video frame)Interleave, preload duration : 500 ms
Audio #2ID : 2Format : AC-3Format/Info : Audio Coding 3Mode extension : CM (complete main)Format settings, Endianness : BigCodec ID : 2000Duration : 1h 13mnBit rate mode : ConstantBit rate : 192 KbpsChannel count : 2 channelsChannel positions : Front: L RSampling rate : 48.0 KHzBit depth : 16 bitsCompression mode : LossyStream size : 100 MiB (7%)Alignment : Split accross interleavesInterleave, duration : 42 ms (1.00 video frame)Interleave, preload duration : 500 ms
Audio #3ID : 3Format : AC-3Format/Info : Audio Coding 3Mode extension : CM (complete main)Format settings, Endianness : BigCodec ID : 2000Duration : 1h 13mnBit rate mode : ConstantBit rate : 192 KbpsChannel count : 2 channelsChannel positions : Front: L RSampling rate : 48.0 KHzBit depth : 16 bitsCompression mode : LossyStream size : 100 MiB (7%)Alignment : Split accross interleavesInterleave, duration : 42 ms (1.00 video frame)Interleave, preload duration : 500 ms

Скриншоты

Скачать

Скачать торрент! Принц Щелкунчик / The Nutcracker Prince (Пол Шибли / Paul Schibli) [1990, мультфильм, фэнтези, приключения, семейный, DVDRip] 2xDub + Eng

Как скачивать? · Что такое торрент? · Рейтинг и ограничения

Сайт не распространяет и не хранит электронные версии произведений, а лишь предоставляет доступ к создаваемому пользователями каталогу ссылок на торрент-файлы, которые содержат только списки хеш-сумм

[Профиль] [ЛС]
Показать сообщения:    
Ответить на тему

Текущее время: Сегодня 11:24

Часовой пояс: GMT + 4



Вы не можете начинать темы
Вы не можете отвечать на сообщения
Вы не можете редактировать свои сообщения
Вы не можете удалять свои сообщения
Вы не можете голосовать в опросах
Вы не можете прикреплять файлы к сообщениям
Вы не можете скачивать файлы