Удар молнии / Allari Pidugu (Джаянт Паранджи / Jayant Paranji) [2005, Индия, Боевик, DVDRip] VO (Tarahb)

Ответить на тему
 
Автор Сообщение

user ®

Стаж: 12 лет

Сообщений: 15124

Пост Пост: #1 от 31-Авг-2013 19:00

[Цитировать]

Удар молнии / Allari Pidugu
Страна: Индия
Жанр: Боевик
Год выпуска: 2005
Продолжительность: 02:51:09
Перевод: Любительский одноголосый - Tarahb
Cубтитры: Нет
Режиссер: Джаянт Паранджи / Jayant Paranji
В ролях: Балакришна, Катрина Каиф, Мукеш Риши, Чарми, Чалапати Рао, Рахул Дев, Пунит Иссар, Шриниваса Рао Кота
Описание: Чакраворти (Пунит Иссар), имеет двух сыновей Раджита и Гири (обоих играет Балакришна). Раджит – примерный ученик и отличник, Гири – лидер в соревнованиях по каббади, но учится спустя рукава. Отец недолюбливает Гири и всегда хвалит только Раджита. Чакраворти садят на 14 лет в тюрьму по ложному обвинению в убийстве. Через 14 лет он выходит из тюрьмы. Раджит стал офицером полиции, а Гири зарабатывает деньги участием в уличных соревнованиях. GK (Мукеш Риши) - член парламента, старый враг семьи, чтоб насолить Раджиту подкладывает оружие Гири, и Раджиту приходится арестовать его, но вскоре он сам попадает в больницу. Теперь всё ложится на плечи Гири – сможет ли он доказать всем свою невиновность, защитить семью и завоевать уважение отца?
Качество видео: DVDRip
Формат видео: AVI
Видео: Xvid, 704x320 pixel, 29,97 fps, 1260 kbps
Аудио: AC3, 48 kHz, 5.1 (6 сh), 448 kbps
Скачать сэмпл: http://multi-up.com/898996

MediaInfo

Формат : AVI
Формат/Информация : Audio Video Interleave
Профиль формата : OpenDML
Размер файла : 2,05 Гбайт
Продолжительность : 2 ч. 51 м.
Общий поток : 1718 Кбит/сек
Программа кодирования : VirtualDubMod 1.5.4.1 (build 2178/release)
Библиотека кодирования : VirtualDubMod build 2178/release
Видео
Идентификатор : 0
Формат : MPEG-4 Visual
Профиль формата : Advanced Simple@L5
Параметр BVOP формата : 1
Параметр QPel формата : Нет
Параметр GMC формата : Без точки перехода
Параметр матрицы формата : Выборочная
Идентификатор кодека : XVID
Идентификатор кодека/Подсказка : XviD
Продолжительность : 2 ч. 51 м.
Битрейт : 1260 Кбит/сек
Ширина : 704 пикселя
Высота : 320 пикселей
Соотношение сторон : 2,2:1
Частота кадров : 29,970 кадров/сек
Цветовое пространство : YUV
Субдискретизация насыщенности : 4:2:0
Битовая глубина : 8 бит
Тип развёртки : Прогрессивная
Метод сжатия : С потерями
Бит/(Пиксели*Кадры) : 0.187
Размер потока : 1,51 Гбайт (73%)
Библиотека кодирования : XviD 1.2.1 (UTC 2008-12-04)
Аудио
Идентификатор : 1
Формат : AC-3
Формат/Информация : Audio Coding 3
Расширение режима : CM (complete main)
Идентификатор кодека : 2000
Продолжительность : 2 ч. 51 м.
Вид битрейта : Постоянный
Битрейт : 448 Кбит/сек
Каналы : 6 каналов
Расположение каналов : Front: L C R, Side: L R, LFE
Частота : 48,0 КГц
Битовая глубина : 16 бит
Метод сжатия : С потерями
Размер потока : 548 Мбайт (26%)
Выравнивание : Разделение по промежуткам
Продолжительность промежутка : 96 мс. (2,88 видеокадра)
Время предзагрузки промежутка : 96 мс.

Скриншот c названием фильма

Скриншоты

Скачать

Скачать торрент! Удар молнии / Allari Pidugu (Джаянт Паранджи / Jayant Paranji) [2005, Индия, Боевик, DVDRip] VO (Tarahb)

Как скачивать? · Что такое торрент? · Рейтинг и ограничения

Сайт не распространяет и не хранит электронные версии произведений, а лишь предоставляет доступ к создаваемому пользователями каталогу ссылок на торрент-файлы, которые содержат только списки хеш-сумм

[Профиль] [ЛС]
Показать сообщения:    
Ответить на тему

Текущее время: Сегодня 13:35

Часовой пояс: GMT + 4



Вы не можете начинать темы
Вы не можете отвечать на сообщения
Вы не можете редактировать свои сообщения
Вы не можете удалять свои сообщения
Вы не можете голосовать в опросах
Вы не можете прикреплять файлы к сообщениям
Вы не можете скачивать файлы