Порочные игры / Стокеры / Stoker (Пак Чхан Ук / Park Chan Wook) [2013, Великобритания, США, триллер, драма, детектив, BDRemux 1080p] MVO + 2х AVO (Сербин, Дольский) + 2х VO (Doctor Joker, den904) + Original (Eng) + Subs (Rus, Eng, Ukr)

Ответить на тему
 
Автор Сообщение

user ®

Стаж: 7 лет 7 месяцев

Сообщений: 20008

Пост Пост: #1 от 31-Авг-2013 15:50

[Цитировать]

Порочные игры / Stoker

-
-Страна: Великобритания, США
Студия: Scott Free Productions, Indian Paintbrush
Жанр: триллер, драма, детектив
Год выпуска: 2013
Продолжительность: 01:38:56--Перевод 1: Профессиональный (многоголосый закадровый) Blu-ray
Перевод 2: Авторский (одноголосый закадровый) Ю. Сербин
Перевод 3: Авторский (одноголосый закадровый) А. Дольский
Перевод 4: Одноголосый закадровый Алексей "Doctor_Joker" Матвеев по переводу MartinaG
Перевод 5: Одноголосый закадровый den904 по переводу Janetta
Cубтитры: русские (Blu-ray, MartinaG, jerichOne), украинские, английские (Full, SDH, SDH-COLORED)
Оригинальная аудиодорожка: английский--Режиссер: Пак Чхан Ук / Park Chan Wook
В ролях: Миа Васиковска, Мэттью Гуд, Николь Кидман, Дэвид Элфорд, Пег Аллен, Лорен Э. Роман, Филлис Соммервиль, Хармони Корин, Лукас Тилл, Олден Эйренрайк--Описание: После смерти отца к девушке и её эмоционально неустойчивой матери приезжает их загадочный дядя.--imdb | kinopoisk | Сэмпл--Тип релиза: BDRemux 1080p [Stoker 2013 1080p Blu-ray AVC DTS-HD MA 5.1-PublicHD]
Контейнер: MKV
Видео: MPEG-4 AVC / 33496 kbps / 1920x1080 / 23,976 fps / 16:9 / High Profile 4.1
Аудио 1: DTS / 5.1 / 48 kHz / 768 kbps / 24 bits |MVO, Blu-ray|
Аудио 2: DTS-HD Master Audio / 5.1 / 48 kHz / 3652 kbps / 24 bits (DTS Core: 5.1 / 48 kHz / 1510 kbps / 24 bits) |Ю. Сербин|
Аудио 3: DTS-HD Master Audio / 5.1 / 48 kHz / 3474 kbps / 24 bits (DTS Core: 5.1 / 48 kHz / 1510 kbps / 24 bits) |А. Дольский|
Аудио 4: DTS-HD Master Audio / 5.1 / 48 kHz / 3578 kbps / 24 bits (DTS Core: 5.1 / 48 kHz / 1510 kbps / 24 bits) |Doctor_Joker|
Аудио 5: DTS-HD Master Audio / 5.1 / 48 kHz / 3657 kbps / 24 bits (DTS Core: 5.1 / 48 kHz / 1510 kbps / 24 bits) |den904|
Аудио 6: DTS-HD Master Audio / 5.1 / 48 kHz / 3633 kbps / 24 bits (DTS Core: 5.1 / 48 kHz / 1510 kbps / 24 bits) |original|
Аудио 7: AC3 / 5.1 / 48 kHz / 448 kbps / 16 bits |Descriptive|
Формат субтитров: softsub [SRT]

MediaInfo

ОбщееУникальный идентификатор : 194787422416405659479717517722930817451 (0x928AB165F81BC99DA70981FFC252A9AB)Полное имя : G:\HD\Порочные игры.2013.Blu-Ray.Remux.(1080p).mkvФормат : MatroskaВерсия формата : Version 2Размер файла : 36,3 ГбайтПродолжительность : 1 ч. 38 м.Режим общего битрейта : ПеременныйОбщий поток : 52,5 Мбит/секДата кодирования : UTC 2013-08-29 15:06:33Программа кодирования : mkvmerge v5.8.0 ('No Sleep / Pillow') built on Sep 2 2012 15:37:04Библиотека кодирования : libebml v1.2.3 + libmatroska v1.3.0Attachment : Yes
ВидеоИдентификатор : 1Формат : AVCФормат/Информация : Advanced Video CodecПрофиль формата : High@L4.1Параметр CABAC формата : ДаПараметр ReFrames формата : 4 кадраРежим смешивания : Container profile=Unknown@0.0Идентификатор кодека : V_MPEG4/ISO/AVCПродолжительность : 1 ч. 38 м.Вид битрейта : ПеременныйМаксимальный битрейт : 35,5 Мбит/секШирина : 1920 пикселейВысота : 1080 пикселейСоотношение сторон : 16:9Режим частоты кадров : ПостоянныйЧастота кадров : 23,976 кадра/секЦветовое пространство : YUVСубдискретизация насыщенности : 4:2:0Битовая глубина : 8 битТип развёртки : ПрогрессивнаяDefault : ДаForced : Нет
Аудио #1Идентификатор : 2Формат : DTSФормат/Информация : Digital Theater SystemsРежим : 16Параметр Endianness формата : BigИдентификатор кодека : A_DTSПродолжительность : 1 ч. 38 м.Вид битрейта : ПостоянныйБитрейт : 768 Кбит/секКаналы : 6 каналовРасположение каналов : Front: L C R, Side: L R, LFEЧастота : 48,0 КГцБитовая глубина : 24 битМетод сжатия : С потерямиРазмер потока : 543 Мбайт (1%)Заголовок : MVO, Blu-rayЯзык : RussianDefault : ДаForced : Нет
Аудио #2Идентификатор : 3Формат : DTSФормат/Информация : Digital Theater SystemsПрофиль формата : MA / CoreРежим : 16Параметр Endianness формата : BigИдентификатор кодека : A_DTSПродолжительность : 1 ч. 38 м.Вид битрейта : ПеременныйБитрейт : Неизвестно / 1509 Кбит/секКаналы : 6 каналовРасположение каналов : Front: L C R, Side: L R, LFEЧастота : 48,0 КГцБитовая глубина : 24 битМетод сжатия : Без потерь / LossyЗаголовок : Ю. СербинЯзык : RussianDefault : НетForced : Нет
Аудио #3Идентификатор : 4Формат : DTSФормат/Информация : Digital Theater SystemsПрофиль формата : MA / CoreРежим : 16Параметр Endianness формата : BigИдентификатор кодека : A_DTSПродолжительность : 1 ч. 38 м.Вид битрейта : ПеременныйБитрейт : Неизвестно / 1509 Кбит/секКаналы : 6 каналовРасположение каналов : Front: L C R, Side: L R, LFEЧастота : 48,0 КГцБитовая глубина : 24 битМетод сжатия : Без потерь / LossyЗаголовок : А. ДольскийЯзык : RussianDefault : НетForced : Нет
Аудио #4Идентификатор : 5Формат : DTSФормат/Информация : Digital Theater SystemsПрофиль формата : MA / CoreРежим : 16Параметр Endianness формата : BigИдентификатор кодека : A_DTSПродолжительность : 1 ч. 38 м.Вид битрейта : ПеременныйБитрейт : Неизвестно / 1509 Кбит/секКаналы : 6 каналовРасположение каналов : Front: L C R, Side: L R, LFEЧастота : 48,0 КГцБитовая глубина : 24 битМетод сжатия : Без потерь / LossyЗаголовок : Doctor_JokerЯзык : RussianDefault : НетForced : Нет
Аудио #5Идентификатор : 6Формат : DTSФормат/Информация : Digital Theater SystemsПрофиль формата : MA / CoreРежим : 16Параметр Endianness формата : BigИдентификатор кодека : A_DTSПродолжительность : 1 ч. 38 м.Вид битрейта : ПеременныйБитрейт : Неизвестно / 1509 Кбит/секКаналы : 6 каналовРасположение каналов : Front: L C R, Side: L R, LFEЧастота : 48,0 КГцБитовая глубина : 24 битМетод сжатия : Без потерь / LossyЗаголовок : den904Язык : RussianDefault : НетForced : Нет
Аудио #6Идентификатор : 7Формат : DTSФормат/Информация : Digital Theater SystemsПрофиль формата : MA / CoreРежим : 16Параметр Endianness формата : BigИдентификатор кодека : A_DTSПродолжительность : 1 ч. 38 м.Вид битрейта : ПеременныйБитрейт : Неизвестно / 1509 Кбит/секКаналы : 6 каналовРасположение каналов : Front: L C R, Side: L R, LFEЧастота : 48,0 КГцБитовая глубина : 24 битМетод сжатия : Без потерь / LossyЯзык : EnglishDefault : НетForced : Нет
Аудио #7Идентификатор : 8Формат : AC-3Формат/Информация : Audio Coding 3Расширение режима : CM (complete main)Параметр Endianness формата : BigИдентификатор кодека : A_AC3Продолжительность : 1 ч. 38 м.Вид битрейта : ПостоянныйБитрейт : 448 Кбит/секКаналы : 6 каналовРасположение каналов : Front: L C R, Side: L R, LFEЧастота : 48,0 КГцБитовая глубина : 16 битМетод сжатия : С потерямиРазмер потока : 317 Мбайт (1%)Заголовок : DescriptiveЯзык : EnglishDefault : НетForced : Нет
Текст #1Идентификатор : 9Формат : UTF-8Идентификатор кодека : S_TEXT/UTF8Идентификатор кодека/Информация : UTF-8 Plain TextЯзык : RussianDefault : НетForced : Нет
Текст #2Идентификатор : 10Формат : UTF-8Идентификатор кодека : S_TEXT/UTF8Идентификатор кодека/Информация : UTF-8 Plain TextЗаголовок : MartinaGЯзык : RussianDefault : НетForced : Нет
Текст #3Идентификатор : 11Формат : UTF-8Идентификатор кодека : S_TEXT/UTF8Идентификатор кодека/Информация : UTF-8 Plain TextЗаголовок : jerichOneЯзык : RussianDefault : НетForced : Нет
Текст #4Идентификатор : 12Формат : UTF-8Идентификатор кодека : S_TEXT/UTF8Идентификатор кодека/Информация : UTF-8 Plain TextЯзык : UkrainianDefault : НетForced : Нет
Текст #5Идентификатор : 13Формат : UTF-8Идентификатор кодека : S_TEXT/UTF8Идентификатор кодека/Информация : UTF-8 Plain TextЯзык : EnglishDefault : НетForced : Нет
Текст #6Идентификатор : 14Формат : UTF-8Идентификатор кодека : S_TEXT/UTF8Идентификатор кодека/Информация : UTF-8 Plain TextЗаголовок : SDHЯзык : EnglishDefault : НетForced : Нет
Текст #7Идентификатор : 15Формат : UTF-8Идентификатор кодека : S_TEXT/UTF8Идентификатор кодека/Информация : UTF-8 Plain TextЗаголовок : SDH-COLOREDЯзык : EnglishDefault : НетForced : Нет
Меню00:00:00.000 : :Chapter 0100:03:48.602 : :Chapter 0200:04:37.275 : :Chapter 0300:07:26.863 : :Chapter 0400:08:42.145 : :Chapter 0500:13:28.557 : :Chapter 0600:16:59.810 : :Chapter 0700:19:24.955 : :Chapter 0800:22:27.095 : :Chapter 0900:26:50.065 : :Chapter 1000:30:26.533 : :Chapter 1100:34:43.289 : :Chapter 1200:39:18.564 : :Chapter 1300:41:47.505 : :Chapter 1400:46:14.771 : :Chapter 1500:49:42.729 : :Chapter 1600:52:46.830 : :Chapter 1700:54:50.495 : :Chapter 1800:59:21.557 : :Chapter 1901:02:43.050 : :Chapter 2001:07:04.186 : :Chapter 2101:08:38.238 : :Chapter 2201:15:24.895 : :Chapter 2301:18:14.773 : :Chapter 2401:22:11.926 : :Chapter 2501:26:22.510 : :Chapter 2601:31:17.470 : :Chapter 2701:34:38.214 : :Chapter 28

Скриншоты


Дополнительно

Спасибо hdclub за MVO.
Дорожки №2,3,4,5 получены наложением чистого голоса на центр декодированного DTS-HD MA.
Перевод Юрия Сербина доступен благодаря пользователям HDClub, спонсоры: tide, Jiraya87, hdrmv12, nekazz, Loki1982, Romao, Dervish, Luka69, GKillah, tambov68 & E180: fen, mihaildns, phaeton77, Serene, Roman Lee, Slimka, Werewolf77, Andrey_Tula, Ken, ZombX, carnivale, semargl.
Работа со звуком — alextar.
Перевод А. Дольского, доступен благодаря пользователям форума forum.hdtracker: timur, Letyoha3, IgorNN, SavineX, KpucTo161, shitman82, Jiraya87, pupok, eyrobot, Denis2251, Guyver, MeGUI.
Работа со звуком: MeGUI
Перевод / озвучка MartinaG / Doctor_Joker, доступна благодаря спонсору: будулайроманов
Работа со звуком: Perevodman
Скачать

Скачать торрент!

Как скачивать? · Что такое торрент? · Рейтинг и ограничения

Сайт не распространяет и не хранит электронные версии произведений, а лишь предоставляет доступ к создаваемому пользователями каталогу ссылок на торрент-файлы, которые содержат только списки хеш-сумм

[Профиль] [ЛС]
Показать сообщения:    
Ответить на тему

Текущее время: Сегодня 04:10

Часовой пояс: GMT + 4



Вы не можете начинать темы
Вы не можете отвечать на сообщения
Вы не можете редактировать свои сообщения
Вы не можете удалять свои сообщения
Вы не можете голосовать в опросах
Вы не можете прикреплять файлы к сообщениям
Вы не можете скачивать файлы