Поймай толстуху, если сможешь / Identity Thief (Сет Гордон / Seth Gordon) [2013, США, комедия, криминал, BDRip 1080p] [Theatrical Cut] Dub + Original (Eng) + Sub (Rus, Eng)

Ответить на тему
 
Автор Сообщение

user ®

Стаж: 7 лет 7 месяцев

Сообщений: 20008

Пост Пост: #1 от 31-Авг-2013 15:50

[Цитировать]

Поймай толстуху, если сможешь / Identity Thief

-
-Страна: США
Студия: Aggregate Films, DumbDumb, Stuber Productions
Жанр: Комедия, криминал
Год выпуска: 2013
Продолжительность: 01:51:27--Перевод: Профессиональный (дублированный) Blu-ray
Cубтитры: русские (forced, full), английские SDH
Оригинальная аудиодорожка: английский--Режиссер: Сет Гордон / Seth Gordon
В ролях: Джейсон Бейтман, Мелисса МакКарти, Аманда Пит, Роберт Патрик, Генезис Родригез, Ти-Ай, Джон Фавро, Моррис Честнат, Джон Чо, Эрик Стоунстрит--Описание: История о человеке, у которого украли документы, удостоверяющие его личность, и к чему это привело.--imdb | kinopoisk | Сэмпл--Тип релиза: BDRip 1080p [Identity Thief 2013 Theatrical Cut 1080p BluRay DTS x264-WESTSiDE]
Контейнер: MKV
Видео: MPEG-4 AVC / 12,5 Mbps / 1920x816 / 23,976 fps / 2,35:1 / High Profile 4.1
Аудио 1: DTS / 5.1 / 48 kHz / 768 kbps / 24 bits |Dub, Blu-ray|
Аудио 2: DTS / 5.1 / 48 kHz / 1509 kbps / 24 bits |original|
Формат субтитров: softsub [SRT]

MediaInfo

Общее
Уникальный идентификатор : 242992367164529127549211391480091812010 (0xB6CEA0AB92416988B929DC9DDB3EA0AA)
Полное имя : G:\HD\Поймай толстуху если сможешь.2013.BDRip.(1080p).mkv
Формат : Matroska
Версия формата : Version 2
Размер файла : 11,5 Гбайт
Продолжительность : 1 ч. 51 м.
Общий поток : 14,8 Мбит/сек
Дата кодирования : UTC 2013-08-30 20:02:19
Программа кодирования : mkvmerge v5.8.0 ('No Sleep / Pillow') built on Sep 2 2012 15:37:04
Библиотека кодирования : libebml v1.2.3 + libmatroska v1.3.0
Attachment : Yes
Видео
Идентификатор : 1
Формат : AVC
Формат/Информация : Advanced Video Codec
Профиль формата : High@L4.1
Параметр CABAC формата : Да
Параметр ReFrames формата : 5 кадров
Идентификатор кодека : V_MPEG4/ISO/AVC
Продолжительность : 1 ч. 51 м.
Битрейт : 12,5 Мбит/сек
Ширина : 1920 пикселей
Высота : 816 пикселей
Соотношение сторон : 2,35:1
Режим частоты кадров : Постоянный
Частота кадров : 23,976 кадра/сек
Цветовое пространство : YUV
Субдискретизация насыщенности : 4:2:0
Битовая глубина : 8 бит
Тип развёртки : Прогрессивная
Бит/(Пиксели*Кадры) : 0.333
Размер потока : 9,50 Гбайт (83%)
Заголовок : Identity Thief 2013 Theatrical Cut 1080p BluRay DTS x264-WESTSiDE
Библиотека кодирования : x264 core 133 r2334 a3ac64b
Настройки программы : cabac=1 / ref=5 / deblock=1:-3:-3 / analyse=0x3:0x133 / me=tesa / subme=11 / psy=1 / psy_rd=1.10:0.00 / mixed_ref=1 / me_range=24 / chroma_me=1 / trellis=2 / 8x8dct=1 / cqm=0 / deadzone=21,11 / fast_pskip=1 / chroma_qp_offset=-2 / threads=12 / lookahead_threads=2 / sliced_threads=0 / nr=0 / decimate=1 / interlaced=0 / bluray_compat=0 / constrained_intra=0 / bframes=8 / b_pyramid=2 / b_adapt=2 / b_bias=0 / direct=3 / weightb=1 / open_gop=0 / weightp=2 / keyint=240 / keyint_min=23 / scenecut=40 / intra_refresh=0 / rc_lookahead=60 / rc=2pass / mbtree=0 / bitrate=12500 / ratetol=1.0 / qcomp=0.60 / qpmin=0 / qpmax=69 / qpstep=4 / cplxblur=20.0 / qblur=0.5 / vbv_maxrate=60000 / vbv_bufsize=60000 / nal_hrd=none / ip_ratio=1.40 / pb_ratio=1.30 / aq=2:0.60
Язык : English
Default : Да
Forced : Нет
Аудио #1
Идентификатор : 2
Формат : DTS
Формат/Информация : Digital Theater Systems
Режим : 16
Параметр Endianness формата : Big
Идентификатор кодека : A_DTS
Продолжительность : 1 ч. 51 м.
Вид битрейта : Постоянный
Битрейт : 768 Кбит/сек
Каналы : 6 каналов
Расположение каналов : Front: L C R, Side: L R, LFE
Частота : 48,0 КГц
Битовая глубина : 24 бит
Метод сжатия : С потерями
Размер потока : 612 Мбайт (5%)
Заголовок : Dub, Blu-ray
Язык : Russian
Default : Да
Forced : Нет
Аудио #2
Идентификатор : 3
Формат : DTS
Формат/Информация : Digital Theater Systems
Режим : 16
Параметр Endianness формата : Big
Идентификатор кодека : A_DTS
Продолжительность : 1 ч. 51 м.
Вид битрейта : Постоянный
Битрейт : 1509 Кбит/сек
Каналы : 6 каналов
Расположение каналов : Front: L C R, Side: L R, LFE
Частота : 48,0 КГц
Битовая глубина : 24 бит
Метод сжатия : С потерями
Размер потока : 1,17 Гбайт (10%)
Заголовок : Original
Язык : English
Default : Нет
Forced : Нет
Текст #1
Идентификатор : 4
Формат : UTF-8
Идентификатор кодека : S_TEXT/UTF8
Идентификатор кодека/Информация : UTF-8 Plain Text
Заголовок : forced
Язык : Russian
Default : Да
Forced : Нет
Текст #2
Идентификатор : 5
Формат : UTF-8
Идентификатор кодека : S_TEXT/UTF8
Идентификатор кодека/Информация : UTF-8 Plain Text
Заголовок : full
Язык : Russian
Default : Нет
Forced : Нет
Текст #3
Идентификатор : 6
Формат : UTF-8
Идентификатор кодека : S_TEXT/UTF8
Идентификатор кодека/Информация : UTF-8 Plain Text
Заголовок : SDH
Язык : English
Default : Нет
Forced : Нет
Меню
00:00:00.000 : en:Chapter 01
00:02:37.699 : en:Chapter 02
00:06:16.959 : en:Chapter 03
00:09:57.555 : en:Chapter 04
00:11:32.691 : en:Chapter 05
00:15:20.753 : en:Chapter 06
00:17:47.191 : en:Chapter 07
00:20:29.478 : en:Chapter 08
00:24:01.982 : en:Chapter 09
00:24:49.779 : en:Chapter 10
00:27:01.661 : en:Chapter 11
00:29:37.358 : en:Chapter 12
00:32:43.419 : en:Chapter 13
00:34:30.193 : en:Chapter 14
00:37:22.657 : en:Chapter 15
00:38:57.376 : en:Chapter 16
00:40:39.145 : en:Chapter 17
00:42:09.944 : en:Chapter 18
00:42:52.444 : en:Chapter 19
00:45:33.480 : en:Chapter 20
00:47:22.839 : en:Chapter 21
00:48:32.409 : en:Chapter 22
00:53:29.831 : en:Chapter 23
00:55:22.652 : en:Chapter 24
00:57:15.932 : en:Chapter 25
00:59:10.838 : en:Chapter 26
01:02:05.263 : en:Chapter 27
01:05:33.220 : en:Chapter 28
01:06:21.102 : en:Chapter 29
01:09:55.774 : en:Chapter 30
01:12:20.836 : en:Chapter 31
01:15:37.783 : en:Chapter 32
01:18:20.320 : en:Chapter 33
01:19:47.782 : en:Chapter 34
01:21:27.882 : en:Chapter 35
01:26:16.170 : en:Chapter 36
01:28:08.783 : en:Chapter 37
01:30:33.219 : en:Chapter 38
01:34:24.116 : en:Chapter 39
01:36:57.436 : en:Chapter 40
01:37:35.975 : en:Chapter 41
01:41:30.876 : en:Chapter 42
01:42:30.394 : en:Chapter 43
01:45:51.762 : en:Chapter 44
01:48:33.423 : en:Chapter 45

Скриншоты


Скачать

Скачать торрент!

Как скачивать? · Что такое торрент? · Рейтинг и ограничения

Сайт не распространяет и не хранит электронные версии произведений, а лишь предоставляет доступ к создаваемому пользователями каталогу ссылок на торрент-файлы, которые содержат только списки хеш-сумм

[Профиль] [ЛС]
Показать сообщения:    
Ответить на тему

Текущее время: Сегодня 00:13

Часовой пояс: GMT + 4



Вы не можете начинать темы
Вы не можете отвечать на сообщения
Вы не можете редактировать свои сообщения
Вы не можете удалять свои сообщения
Вы не можете голосовать в опросах
Вы не можете прикреплять файлы к сообщениям
Вы не можете скачивать файлы