Маттерхорн / Matterhorn (Дидерик Эббинге / Diederik Ebbinge) [2013, Нидерланды, драма, комедия, DVDRip] VO + Original Dut

Ответить на тему
 
Автор Сообщение

user ®

Стаж: 7 лет 7 месяцев

Сообщений: 20008

Пост Пост: #1 от 31-Авг-2013 12:40

[Цитировать]

Маттерхорн / Matterhorn
Страна: Нидерланды
Жанр: драма, комедия
Год выпуска: 2013
Продолжительность: 01:23:07
Перевод: Одноголосый закадровый [datynet]
Cубтитры: нет
Оригинальная аудиодорожка: нидерландский-Режиссер: Дидерик Эббинге / Diederik Ebbinge
В ролях: Рене ван’т Хоф, Тон Кас, Ко Эртз, Кеес Альбертс, Лукас Дийкер, Порги Франссен, Алекс Клаассен, Элиз Шаап, Ариан Шлутер, Сигер Слоот-Описание: В крошечной патриархальной деревушке тихо и мирно живет некий Фред. Живет он в одиночестве — жена умерла, а с сыном отношения не сложились. Фред ровным счетом ничем не занят: его жизнь состоит из походов в церковь и разговоров с соседями. Однажды у порога его дома появляется бродяга Тео, и самым причудливым образом переворачивает скучную жизнь Фреда.-Доп. информация: премьера (мир) 7 февраля 2013


Приз за лучший фильм - Золотой «Святой Георгий»
-Качество видео: DVDRip
Формат видео: AVI
Видео: 720x320 (2.25:1), 25 fps, DivX Codec 4.x ~2053 kbps avg, 0.36 bit/pixel
Аудио: 44.100 kHz, MPEG Layer 3, 2 ch, ~192.00 kbps avg Ru
Аудио 2: 48.00 kHz, MPEG Layer 3, 2 ch, ~224.00 kbps avg En

MediaInfo

Общее
Полное имя : E:\Matterhorn.2013.DVDRip.avi
Формат : AVI
Формат/Информация : Audio Video Interleave
Размер файла : 1,44 Гбайт
Продолжительность : 1 ч. 23 м.
Общий поток : 2483 Кбит/сек
Видео
Идентификатор : 0
Формат : MPEG-4 Visual
Профиль формата : Advanced Simple@L5
Параметр BVOP формата : 1
Параметр QPel формата : Нет
Параметр GMC формата : Без точки перехода
Параметр матрицы формата : Default (H.263)
Идентификатор кодека : DX50
Идентификатор кодека/Подсказка : DivX 5
Продолжительность : 1 ч. 23 м.
Битрейт : 2053 Кбит/сек
Ширина : 720 пикселей
Высота : 320 пикселей
Соотношение сторон : 2,25:1
Частота кадров : 25,000 кадров/сек
Цветовое пространство : YUV
Субдискретизация насыщенности : 4:2:0
Битовая глубина : 8 бит
Тип развёртки : Прогрессивная
Метод сжатия : С потерями
Бит/(Пиксели*Кадры) : 0.356
Размер потока : 1,19 Гбайт (83%)
Библиотека кодирования : XviD 1.2.1 (UTC 2008-12-04)
Аудио #1
Идентификатор : 1
Формат : MPEG Audio
Версия формата : Version 1
Профиль формата : Layer 3
Идентификатор кодека : 55
Идентификатор кодека/Подсказка : MP3
Продолжительность : 1 ч. 23 м.
Вид битрейта : Постоянный
Битрейт : 192 Кбит/сек
Каналы : 2 канала
Частота : 44,1 КГц
Метод сжатия : С потерями
Размер потока : 114 Мбайт (8%)
Выравнивание : Разделение по промежуткам
Продолжительность промежутка : 40 мс. (1,00 видеокадр)
Время предзагрузки промежутка : 500 мс.
Аудио #2
Идентификатор : 2
Формат : MPEG Audio
Версия формата : Version 1
Профиль формата : Layer 3
Режим : Joint stereo
Расширение режима : MS Stereo
Идентификатор кодека : 55
Идентификатор кодека/Подсказка : MP3
Продолжительность : 1 ч. 23 м.
Вид битрейта : Постоянный
Битрейт : 224 Кбит/сек
Каналы : 2 канала
Частота : 48,0 КГц
Метод сжатия : С потерями
Размер потока : 133 Мбайт (9%)
Выравнивание : Соединение по промежуткам
Продолжительность промежутка : 40 мс. (1,00 видеокадр)
Время предзагрузки промежутка : 504 мс.
Библиотека кодирования : LAME3.98r
Настройки программы : -m j -V 4 -q 5 -lowpass 19.4 -b 224

Скриншоты

Скачать

Скачать торрент!

Как скачивать? · Что такое торрент? · Рейтинг и ограничения

Сайт не распространяет и не хранит электронные версии произведений, а лишь предоставляет доступ к создаваемому пользователями каталогу ссылок на торрент-файлы, которые содержат только списки хеш-сумм

[Профиль] [ЛС]
Показать сообщения:    
Ответить на тему

Текущее время: Сегодня 12:10

Часовой пояс: GMT + 4



Вы не можете начинать темы
Вы не можете отвечать на сообщения
Вы не можете редактировать свои сообщения
Вы не можете удалять свои сообщения
Вы не можете голосовать в опросах
Вы не можете прикреплять файлы к сообщениям
Вы не можете скачивать файлы