Властелин любви / The Look of Love (Майкл Уинтерботтом / Michael Winterbottom) [2013, Великобритания, США, драма, комедия, биография, HDRip] Dub

Ответить на тему
 
Автор Сообщение

user ®

Стаж: 7 лет 7 месяцев

Сообщений: 20008

Пост Пост: #1 от 31-Авг-2013 12:40

[Цитировать]

Властелин любви / The Look of Love«Введи нас в искушение» Страна: Великобритания, США
Жанр: драма, комедия, биография
Год выпуска: 2013
Продолжительность: 01:41:01
Перевод: Профессиональный (дублированный)
Cубтитры: нет
Оригинальная аудиодорожка: нет-Режиссер: Майкл Уинтерботтом / Michael Winterbottom
В ролях: Стив Куган, Анна Фрил, Имоджен Путс, Тэмсин Эгертон, Крис Эддисон, Джеймс Лэнс, Ширли Хендерсон, Дэвид Уоллиамс, Мэтт Лукас, Саймон Бёрд-Описание: Пауль Раймонд был прозван в прессе «Королём Сохо» из-за принадлежащего ему огромного клуба и невероятного количества недвижимого имущества, что наряду с его порнобизнесом принесло ему состояние в миллиарды фунтов.-Доп. информация: премьера (мир) 19 января 2013

-Качество видео: HDRip
Формат видео: AVI
Видео: XviD, 1678 kb/s, 720x304 (2,35:1), 24 fps
Аудио: AC3, 384 kb/s (6 ch)

MediaInfo

Общее
Полное имя : E:\Vlastelin.lubvi.2013.P.HDRip.1.46.GB.avi
Формат : AVI
Формат/Информация : Audio Video Interleave
Размер файла : 1,46 Гбайт
Продолжительность : 1 ч. 41 м.
Общий поток : 2072 Кбит/сек
Режиссёр : 03nazar03
Программа кодирования : VirtualDubMod 1.5.10.3 | www.virtualdub-fr.org || (build 2550/release)
Библиотека кодирования : VirtualDubMod build 2550/release
Правообладатель : СПАМ
Видео
Идентификатор : 0
Формат : MPEG-4 Visual
Профиль формата : Advanced Simple@L5
Параметр BVOP формата : 2
Параметр QPel формата : Нет
Параметр GMC формата : Без точки перехода
Параметр матрицы формата : Выборочная
Идентификатор кодека : XVID
Идентификатор кодека/Подсказка : XviD
Продолжительность : 1 ч. 41 м.
Битрейт : 1679 Кбит/сек
Ширина : 720 пикселей
Высота : 304 пикселя
Соотношение сторон : 2,35:1
Частота кадров : 24,000 кадра/сек
Цветовое пространство : YUV
Субдискретизация насыщенности : 4:2:0
Битовая глубина : 8 бит
Тип развёртки : Прогрессивная
Метод сжатия : С потерями
Бит/(Пиксели*Кадры) : 0.320
Размер потока : 1,18 Гбайт (81%)
Библиотека кодирования : XviD 1.2.1 (UTC 2008-12-04)
Аудио
Идентификатор : 1
Формат : AC-3
Формат/Информация : Audio Coding 3
Расширение режима : CM (complete main)
Параметр Endianness формата : Big
Идентификатор кодека : 2000
Продолжительность : 1 ч. 41 м.
Вид битрейта : Постоянный
Битрейт : 384 Кбит/сек
Каналы : 6 каналов
Расположение каналов : Front: L C R, Side: L R, LFE
Частота : 48,0 КГц
Битовая глубина : 16 бит
Метод сжатия : С потерями
Размер потока : 277 Мбайт (19%)
Выравнивание : Разделение по промежуткам
Продолжительность промежутка : 42 мс. (1,00 видеокадр)
Время предзагрузки промежутка : 500 мс.

Скриншоты

Скачать

Скачать торрент!

Как скачивать? · Что такое торрент? · Рейтинг и ограничения

Сайт не распространяет и не хранит электронные версии произведений, а лишь предоставляет доступ к создаваемому пользователями каталогу ссылок на торрент-файлы, которые содержат только списки хеш-сумм

[Профиль] [ЛС]
Показать сообщения:    
Ответить на тему

Текущее время: Сегодня 18:16

Часовой пояс: GMT + 4



Вы не можете начинать темы
Вы не можете отвечать на сообщения
Вы не можете редактировать свои сообщения
Вы не можете удалять свои сообщения
Вы не можете голосовать в опросах
Вы не можете прикреплять файлы к сообщениям
Вы не можете скачивать файлы