Небо нашего детства (Толомуш Океев) [1966, драма, VHSRip]

Ответить на тему
 
Автор Сообщение

user ®

Стаж: 7 лет 7 месяцев

Сообщений: 20008

Пост Пост: #1 от 30-Авг-2013 20:55

[Цитировать]

Небо нашего детства
Жанр: драма
Год выпуска: 1966
Продолжительность: 01:14:41
Режиссёр: Толомуш Океев
В ролях: Муратбек Рыскулов, Алиман Джангорозова, Советбек Джумадылов, Б. Рыскулова, Насретдин Дубашев, Самак Алымкулов, Биксултан Жакиев, Сабира Кумушалиева
Описание: Мальчуган приехал на горное пастбище к родителям на летние каникулы из города, где он учится в школе и живет в доме старшей сестры. Стареющим родителям, особенно отцу, хочется оставить своего последыша в кочевье. Старших детей забрал город, их уже не вернуть. Кто возьмет в свои руки хозяйство, кто согреет родителей в старости, кто, наконец, станет духовным наследником большой патриархальной семьи?
Бакай, отец Калыка, поначалу непреклонен в своей решимости оставить сына дома, в горах. Урум, мать, оказывается мудрее и убеждает горячего и скорого на руку супруга отпустить в город и младшего сына.
Сэмпл: http://multi-up.com/ (будет залит чуть позже, multi-up че то тупит или комп у меня)
Качество видео: VHSRip
Формат видео: MPEG
Видео: MPEG Video, 352 x 288 (1.333), 25.000 fps, 1 578 Kbps
Аудио: MPEG Audio, 2 channels, 48.0 KHz, 128 Kbps

Скриншот c названием фильма

Скриншоты

MediaInfo

Format : MPEG-PS
File size : 930 MiB
Duration : 1h 14mn
Overall bit rate : 1 740 Kbps
Video
ID : 224 (0xE0)
Format : MPEG Video
Format version : Version 2
Format profile : Main@Main
Format settings, BVOP : Yes
Format settings, Matrix : Default
Format settings, GOP : M=3, N=15
Duration : 1h 14mn
Bit rate mode : Variable
Bit rate : 1 578 Kbps
Nominal bit rate : 9 610 Kbps
Width : 352 pixels
Height : 288 pixels
Display aspect ratio : 4:3
Frame rate : 25.000 fps
Standard : PAL
Color space : YUV
Chroma subsampling : 4:2:0
Bit depth : 8 bits
Scan type : Progressive
Bits/(Pixel*Frame) : 0.623
Stream size : 843 MiB (91%)
Audio
ID : 192 (0xC0)
Format : MPEG Audio
Format version : Version 1
Format profile : Layer 2
Duration : 1h 14mn
Bit rate mode : Constant
Bit rate : 128 Kbps
Channel(s) : 2 channels
Sampling rate : 48.0 KHz
Video delay : 16ms
Stream size : 68.4 MiB (7%)
Скачать

Скачать торрент!

Как скачивать? · Что такое торрент? · Рейтинг и ограничения

Сайт не распространяет и не хранит электронные версии произведений, а лишь предоставляет доступ к создаваемому пользователями каталогу ссылок на торрент-файлы, которые содержат только списки хеш-сумм

[Профиль] [ЛС]
Показать сообщения:    
Ответить на тему

Текущее время: Сегодня 08:09

Часовой пояс: GMT + 4



Вы не можете начинать темы
Вы не можете отвечать на сообщения
Вы не можете редактировать свои сообщения
Вы не можете удалять свои сообщения
Вы не можете голосовать в опросах
Вы не можете прикреплять файлы к сообщениям
Вы не можете скачивать файлы