Карты, деньги, два ствола / Lock, Stock and Two Smoking Barrels (Гай Ричи / Guy Ritchie) [1998, Великобритания, криминал, комедия, BDRemux 1080p] MVO (Киномания) + AVO (Гоблин, Сербин) + Original (Eng) + Subs (Rus, Eng)

Ответить на тему
 
Автор Сообщение

user ®

Стаж: 7 лет 7 месяцев

Сообщений: 20008

Пост Пост: #1 от 30-Авг-2013 14:40

[Цитировать]

Карты, деньги, два ствола Lock, Stock and Two Smoking Barrels Страна: Великобритания
Жанр: драма, криминал
Год выпуска: 1998
Продолжительность: 01:47:23-Перевод#1: Профессиональный (многоголосый закадровый) |Киномания|
Перевод#2: Авторский (одноголосый закадровый) |Гоблин_1|
Перевод#3: Авторский (одноголосый закадровый) |Гоблин_2|
Перевод#4: Авторский (одноголосый закадровый) |Ю. Сербин|
Оригинальная аудиодорожка: английский
Cубтитры: русские, английские-Режиссер: Гай Ричи / Guy Ritchie-В ролях-Джейсон Стэйтем, Ник Моран, Джейсон Флеминг, Декстер Флетчер, Винни Джонс, Стинг, Стивен Макинтош, Николас Роу, Ник Марк, Чарльз Форбс-Описание-Четверо молодых парней накопили каждый по 25 тысяч фунтов, чтобы один из них мог сыграть в карты с опытным шулером и матерым преступником, известным по кличке Гарри-Топор. Парень в итоге проиграл 500 тысяч, на уплату долга ему дали неделю. В противном случае и ему и его “спонсорам” каждый день будут отрубать по пальцу, а потом… Чтобы выйти из положения, ребята решили ограбить бандитов, решивших ограбить трех “ботаников”, выращивающих марихуану для местного наркобарона. Гарри-Топор тем временем нанимает через своего подручного двух крайне неумных типов добыть для него ружья, среди которых есть два очень дорогих антикварных. Посчитав их старой рухлядью, бандиты продали антиквариат нашим героям, а те использовали двухстволки для ограбления. Топор, естественно, потребовал ружья обратно…-Качество видео: BDRemux 1080p-Контейнер: MKV-Видео: VC-1, 1080p, 31441 kbps, 23.976 fps
Аудио: AC-3, 640 kbps, Dolby Digital, 3/2 (L,C,R,l,r) + LFE ch, 48 KHz |Киномания|
Аудио: DТS-HD MA, 3941 kbps, 6ch (Front: L C R, Side: L R, LFE), 48,0 KHz (DTS Core: 5.1 / 48 kHz / 1509 kbps / 24-bit) |Гоблин_1|
Аудио: DТS-HD MA, 4084 kbps, 6ch (Front: L C R, Side: L R, LFE), 48,0 KHz (DTS Core: 5.1 / 48 kHz / 1510 kbps / 24-bit) |Гоблин_2|
Аудио: DТS, 768 kbps, 6ch (Front: L C R, Side: L R, LFE), 48 KHz |Ю. Сербин|
Аудио: DТS-HD MA, 4085 kbps, 6ch (Front: L C R, Side: L R, LFE), 48,0 KHz (DTS Core: 5.1 / 48 kHz / 1510 kbps / 24-bit) |Оригинал|
Формат субтитров: softsub (SRT)-

MediaInfo

Формат : Matroska
Версия формата : Version 2
Размер файла : 33,7 Гбайт
Продолжительность : 1 ч. 47 м.
Режим общего битрейта : Переменный
Общий поток : 45,0 Мбит/сек
Название фильма : Карты, деньги, два ствола_BDRemux
Дата кодирования : UTC 2013-08-28 15:54:10
Программа кодирования : mkvmerge v5.5.0 ('Healer') built on Apr 24 2012 23:47:03
Библиотека кодирования : libebml v1.2.3 + libmatroska v1.3.0
Видео
Идентификатор : 1
Формат : VC-1
Профиль формата : AP@L3
Идентификатор кодека : WVC1
Идентификатор кодека/Подсказка : Microsoft
Продолжительность : 1 ч. 47 м.
Битрейт : 36,3 Мбит/сек
Ширина : 1920 пикселей
Высота : 1080 пикселей
Соотношение сторон : 16:9
Частота кадров : 23,976 кадра/сек
Субдискретизация насыщенности : 4:2:0
Битовая глубина : 8 бит
Тип развёртки : Прогрессивная
Метод сжатия : С потерями
Бит/(Пиксели*Кадры) : 0.729
Размер потока : 27,2 Гбайт (81%)
Заголовок : Lock, Stock and Two Smoking Barrels
Язык : English
Default : Да
Forced : Нет
Аудио #1
Идентификатор : 2
Формат : AC-3
Формат/Информация : Audio Coding 3
Расширение режима : CM (complete main)
Параметр Endianness формата : Big
Идентификатор кодека : A_AC3
Продолжительность : 1 ч. 47 м.
Вид битрейта : Постоянный
Битрейт : 640 Кбит/сек
Каналы : 6 каналов
Расположение каналов : Front: L C R, Side: L R, LFE
Частота : 48,0 КГц
Битовая глубина : 16 бит
Метод сжатия : С потерями
Размер потока : 492 Мбайт (1%)
Заголовок : MVO
Язык : Russian
Default : Да
Forced : Нет
Аудио #2
Идентификатор : 3
Формат : DTS
Формат/Информация : Digital Theater Systems
Профиль формата : MA / Core
Идентификатор кодека : A_DTS
Продолжительность : 1 ч. 47 м.
Вид битрейта : Переменный
Битрейт : 2368 Кбит/сек / 1510 Кбит/сек
Каналы : 6 каналов
Расположение каналов : Front: L C R, Side: L R, LFE
Частота : 48,0 КГц
Битовая глубина : 24 бит
Метод сжатия : Без потерь / Lossy
Заголовок : Гоблин_1
Язык : Russian
Default : Нет
Forced : Нет
Аудио #3
Идентификатор : 4
Формат : DTS
Формат/Информация : Digital Theater Systems
Профиль формата : MA / Core
Идентификатор кодека : A_DTS
Продолжительность : 1 ч. 47 м.
Вид битрейта : Переменный
Битрейт : 1561 Кбит/сек / 1510 Кбит/сек
Каналы : 6 каналов
Расположение каналов : Front: L C R, Side: L R, LFE
Частота : 48,0 КГц
Битовая глубина : 24 бит
Метод сжатия : Без потерь / Lossy
Заголовок : Гоблин_2
Язык : Russian
Default : Нет
Forced : Нет
Аудио #4
Идентификатор : 5
Формат : DTS
Формат/Информация : Digital Theater Systems
Идентификатор кодека : A_DTS
Продолжительность : 1 ч. 47 м.
Вид битрейта : Постоянный
Битрейт : 755 Кбит/сек
Каналы : 6 каналов
Расположение каналов : Front: L C R, Side: L R, LFE
Частота : 48,0 КГц
Битовая глубина : 24 бит
Метод сжатия : С потерями
Размер потока : 580 Мбайт (2%)
Заголовок : Сербин
Язык : Russian
Default : Нет
Forced : Нет
Аудио #5
Идентификатор : 6
Формат : DTS
Формат/Информация : Digital Theater Systems
Профиль формата : MA / Core
Идентификатор кодека : A_DTS
Продолжительность : 1 ч. 47 м.
Вид битрейта : Переменный
Битрейт : 2482 Кбит/сек / 1510 Кбит/сек
Каналы : 6 каналов
Расположение каналов : Front: L C R, Side: L R, LFE
Частота : 48,0 КГц
Битовая глубина : 24 бит
Метод сжатия : Без потерь / Lossy
Заголовок : Original
Язык : English
Default : Нет
Forced : Нет
Текст #1
Идентификатор : 7
Формат : UTF-8
Идентификатор кодека : S_TEXT/UTF8
Идентификатор кодека/Информация : UTF-8 Plain Text
Заголовок : Гоблин
Язык : Russian
Default : Да
Forced : Нет
Текст #2
Идентификатор : 8
Формат : UTF-8
Идентификатор кодека : S_TEXT/UTF8
Идентификатор кодека/Информация : UTF-8 Plain Text
Язык : Russian
Default : Нет
Forced : Нет
Текст #3
Идентификатор : 9
Формат : UTF-8
Идентификатор кодека : S_TEXT/UTF8
Идентификатор кодека/Информация : UTF-8 Plain Text
Язык : English
Default : Нет
Forced : Нет

Скриншоты

Торент заменен 28.08.13__22:20 мск
Замена: MVO (AC3 448 AC3 640), VO_Сербин (AC3 448 DTS), VO_Гоблин_1 (DTS DТS-HD MA)
Скачать

Скачать торрент!

Как скачивать? · Что такое торрент? · Рейтинг и ограничения

Сайт не распространяет и не хранит электронные версии произведений, а лишь предоставляет доступ к создаваемому пользователями каталогу ссылок на торрент-файлы, которые содержат только списки хеш-сумм

[Профиль] [ЛС]
Показать сообщения:    
Ответить на тему

Текущее время: Сегодня 15:37

Часовой пояс: GMT + 4



Вы не можете начинать темы
Вы не можете отвечать на сообщения
Вы не можете редактировать свои сообщения
Вы не можете удалять свои сообщения
Вы не можете голосовать в опросах
Вы не можете прикреплять файлы к сообщениям
Вы не можете скачивать файлы