Ледяной / The Iceman (Ариэль Вромен / Ariel Vromen) [2013, США, Триллер, драма, криминал, биография, BDRip-AVC] MVO + Original Eng

Ответить на тему
 
Автор Сообщение

user ®

Стаж: 8 лет 3 месяца

Сообщений: 20008

Пост Пост: #1 от 30-Авг-2013 14:40

[Цитировать]

Ледяной / The Iceman
Страна: США, Bleiberg Entertainment, Millennium Films, RabbitBandini Productions
Жанр: Триллер, драма, криминал, биография
Год выпуска: 2013
Продолжительность: 01:45:27
Перевод: Профессиональный (многоголосый закадровый)
Cубтитры: нет
Оригинальная аудиодорожка: английский
Режиссер: Ариэль Вромен/Ariel Vromen
В ролях: Майкл Шеннон, Вайнона Райдер, Рэй Лиотта, Крис Эванс, Дэвид Швиммер, Роберт Дави, Дэнни А. Абекейзер, Джон Вентимилья, Райан О’Нан, МакКали Миллер

Криминальный байопик проливает свет на историю о наемном убийце Ричарде Куклински, сумевшем долгое время параллельно вести две абсолютно взаимоисключающие жизни: с одной стороны он жестокий киллер, с другой — образцовый семьянин. За 20 лет Куклински убил сотни человек и прославился под прозвищем «Ледяной» за то, что замораживал трупы своих жертв в промышленных рефрижераторах. Однако зыбкое равновесие между криминальными делами и семейным счастьем обречено было однажды разрушиться.
Сэмпл: http://multi-up.com/898498
Качество видео:BDRip-AVC
The Iceman 2012 1080p Blu-ray Remux AVC TrueHD 5.1 - KRaLiMaRKo
Формат видео: MKV
Видео: H264,1024x576,aspect ratio16:9(1.78:1),23.976fps,2050kbps
Аудио: AC3,48000Hz,448kbps,channels 6(5.1),RUS
Аудио 2: AC3,48000Hz,448kbps,channels 6(5.1),ENG


MediaInfo

Video
ID : 1
Format : AVC
Format/Info : Advanced Video Codec
Format profile : High@L4.1
Format settings, CABAC : Yes
Format settings, ReFrames : 7 frames
Codec ID : V_MPEG4/ISO/AVC
Duration : 1h 45mn
Bit rate : 2 050 Kbps
Width : 1 024 pixels
Height : 576 pixels
Display aspect ratio : 16:9
Frame rate mode : Constant
Frame rate : 23.976 fps
Color space : YUV
Chroma subsampling : 4:2:0
Bit depth : 8 bits
Scan type : Progressive
Bits/(Pixel*Frame) : 0.145
Stream size : 1.47 GiB (68%)
Writing library : x264 core 125 r2208 d9d2288
Encoding settings : cabac=1 / ref=7 / deblock=1:-4:-4 / analyse=0x3:0x113 / me=umh / subme=9 / psy=1 / psy_rd=1.00:0.00 / mixed_ref=1 / me_range=32 / chroma_me=1 / trellis=2 / 8x8dct=1 / cqm=0 / deadzone=21,11 / fast_pskip=0 / chroma_qp_offset=-2 / threads=6 / lookahead_threads=1 / sliced_threads=0 / nr=0 / decimate=0 / interlaced=0 / bluray_compat=0 / constrained_intra=0 / bframes=6 / b_pyramid=2 / b_adapt=2 / b_bias=0 / direct=3 / weightb=1 / open_gop=1 / weightp=2 / keyint=240 / keyint_min=23 / scenecut=40 / intra_refresh=0 / rc_lookahead=240 / rc=2pass / mbtree=1 / bitrate=2050 / ratetol=1.0 / qcomp=0.60 / qpmin=0 / qpmax=69 / qpstep=4 / cplxblur=20.0 / qblur=0.5 / ip_ratio=1.40 / aq=1:1.00
Language : English
Default : Yes
Forced : No
Audio #1
ID : 2
Format : AC-3
Format/Info : Audio Coding 3
Mode extension : CM (complete main)
Format settings, Endianness : Big
Codec ID : A_AC3
Duration : 1h 45mn
Bit rate mode : Constant
Bit rate : 448 Kbps
Channel(s) : 6 channels
Channel positions : Front: L C R, Side: L R, LFE
Sampling rate : 48.0 KHz
Bit depth : 16 bits
Compression mode : Lossy
Stream size : 338 MiB (15%)
Default : Yes
Forced : No
Audio #2
ID : 3
Format : AC-3
Format/Info : Audio Coding 3
Mode extension : CM (complete main)
Format settings, Endianness : Big
Codec ID : A_AC3
Duration : 1h 45mn
Bit rate mode : Constant
Bit rate : 448 Kbps
Channel(s) : 6 channels
Channel positions : Front: L C R, Side: L R, LFE
Sampling rate : 48.0 KHz
Bit depth : 16 bits
Compression mode : Lossy
Stream size : 338 MiB (15%)
Default : No
Forced : No
Menu
00:00:00.000 : en:00:00:00.000
00:08:11.491 : en:00:08:11.491
00:17:14.575 : en:00:17:14.575
00:24:57.830 : en:00:24:57.830
00:35:08.273 : en:00:35:08.273
00:45:57.630 : en:00:45:57.630
00:56:20.377 : en:00:56:20.377
01:04:05.425 : en:01:04:05.425
01:13:03.588 : en:01:13:03.588
01:19:42.569 : en:01:19:42.569
01:31:17.055 : en:01:31:17.055
01:39:52.403 : en:01:39:52.403

Скриншот c названием фильма

Скачать

Скачать торрент!

Как скачивать? · Что такое торрент? · Рейтинг и ограничения

Сайт не распространяет и не хранит электронные версии произведений, а лишь предоставляет доступ к создаваемому пользователями каталогу ссылок на торрент-файлы, которые содержат только списки хеш-сумм

[Профиль] [ЛС]
Показать сообщения:    
Ответить на тему

Текущее время: Сегодня 02:43

Часовой пояс: GMT + 4



Вы не можете начинать темы
Вы не можете отвечать на сообщения
Вы не можете редактировать свои сообщения
Вы не можете удалять свои сообщения
Вы не можете голосовать в опросах
Вы не можете прикреплять файлы к сообщениям
Вы не можете скачивать файлы