Призрачный патруль / R.I.P.D. (Роберт Швентке / Robert Schwentke) [2013, США, фантастика, боевик, комедия, WEB-DL 720p] Dub

Ответить на тему
 
Автор Сообщение

user ®

Стаж: 7 лет 7 месяцев

Сообщений: 20008

Пост Пост: #1 от 30-Авг-2013 05:10

[Цитировать]

Призрачный патруль / R.I.P.D.
Страна: США
Студия: Universal Pictures, Original Film, Dark Horse Entertainment
Жанр: фантастика, боевик, комедия
Год выпуска: 2013
Продолжительность: 01:35:50
Перевод: Профессиональный (дублированный) iTunes Russia
Cубтитры: нет
Оригинальная аудиодорожка: нет
Режиссер: Роберт Швентке / Robert Schwentke
В ролях: Джефф Бриджес, Райан Рейнольдс, Кевин Бейкон, Мэри-Луиз Паркер, Стефани Зостак, Джеймс Хонг, Мариса Миллер, Роберт Неппер, Майк О’Мэлли, Девин Рэтрей
Описание: Детективы из загробного департамента расследуют преступления по ту сторону могилы и гоняются за не в меру ретивой нечистью. Молодой коп, после гибели от руки неизвестного злоумышленника угодивший в мир иной, в обмен на помощь при расследовании собственного убийства обязуется следующие сто лет посвятить службе в R.I.P.D. и, получив в напарники брутального стрелка эпохи вестернов, выходит на борьбу с неупокоившимся злом.
Сэмпл: http://multi-up.com/898146/
Тип релиза: WEB-DL 720p
Контейнер: MKV
Видео: 1280x542 at 23.976 fps, MPEG-4 AVC, ~4 059 Kbps avg
Аудио: Russian: 48 kHz, AC3, 3/2 (L,C,R,l,r) + LFE ch, ~384.00 kbps avg |Дубляж, iTunes Russia|

Mediainfo

General
Unique ID : 238592228123676714343298609799339048285 (0xB37F3110E6C69F15878F61FD9549FD5D)
Complete name : G:\торенты\R.I.P.D.720p.WEB-DL.Rus.mkv
Format : Matroska
Format version : Version 2
File size : 3.03 GiB
Duration : 1h 35mn
Overall bit rate : 4 533 Kbps
Movie name : R.I.P.D. (2013)
Encoded date : UTC 2013-08-28 19:11:50
Writing application : mkvmerge v3.4.0 ('Rapunzel') built on May 15 2010 09:38:20
Writing library : libebml v0.8.0 + libmatroska v0.9.0
Video
ID : 1
Format : AVC
Format/Info : Advanced Video Codec
Format profile : Main@L3.1
Format settings, CABAC : No
Format settings, ReFrames : 2 frames
Codec ID : V_MPEG4/ISO/AVC
Duration : 1h 35mn
Bit rate : 4 059 Kbps
Width : 1 280 pixels
Height : 542 pixels
Display aspect ratio : 2.35:1
Frame rate mode : Constant
Frame rate : 23.976 fps
Color space : YUV
Chroma subsampling : 4:2:0
Bit depth : 8 bits
Scan type : Progressive
Bits/(Pixel*Frame) : 0.244
Stream size : 2.72 GiB (90%)
Title : R.I.P.D. (2013)
Language : English
Default : Yes
Forced : No
Color primaries : BT.709
Transfer characteristics : BT.709
Matrix coefficients : BT.709
Audio
ID : 2
Format : AC-3
Format/Info : Audio Coding 3
Mode extension : CM (complete main)
Format settings, Endianness : Big
Codec ID : A_AC3
Duration : 1h 35mn
Bit rate mode : Constant
Bit rate : 384 Kbps
Channel(s) : 6 channels
Channel positions : Front: L C R, Side: L R, LFE
Sampling rate : 48.0 KHz
Bit depth : 16 bits
Compression mode : Lossy
Stream size : 263 MiB (8%)
Title : AC3 5.1 @ 384 kbps - DUB, iTunes
Language : Russian
Default : Yes
Forced : No
Menu
00:00:00.000 : en:00:00:00.000
00:03:59.000 : en:00:03:59,000
00:09:15.000 : en:00:09:15,000
00:14:34.000 : en:00:14:34,000
00:18:00.000 : en:00:18:00,000
00:22:32.000 : en:00:22:32,000
00:27:11.000 : en:00:27:11,000
00:33:35.000 : en:00:33:35,000
00:38:48.000 : en:00:38:48,000
00:43:29.000 : en:00:43:29,000
00:46:33.000 : en:00:46:33,000
00:52:06.000 : en:00:52:06,000
00:55:54.000 : en:00:55:54,000
01:02:17.000 : en:01:02:17,000
01:07:03.000 : en:01:07:03,000
01:10:37.000 : en:01:10:37,000
01:13:18.000 : en:01:13:18,000
01:17:54.000 : en:01:17:54,000
01:23:02.000 : en:01:23:02,000
01:27:29.000 : en:01:27:29,000 / en:01:27:29,000

Скриншоты

Скачать

Скачать торрент!

Как скачивать? · Что такое торрент? · Рейтинг и ограничения

Сайт не распространяет и не хранит электронные версии произведений, а лишь предоставляет доступ к создаваемому пользователями каталогу ссылок на торрент-файлы, которые содержат только списки хеш-сумм

[Профиль] [ЛС]
Показать сообщения:    
Ответить на тему

Текущее время: Сегодня 03:11

Часовой пояс: GMT + 4



Вы не можете начинать темы
Вы не можете отвечать на сообщения
Вы не можете редактировать свои сообщения
Вы не можете удалять свои сообщения
Вы не можете голосовать в опросах
Вы не можете прикреплять файлы к сообщениям
Вы не можете скачивать файлы