Трудная мишень / Hard Target (Джон Ву / John Woo) [1993, США, боевик, триллер, BDRip 1080p] MVO (R1) + AVO (А.Гаврилов) + Sub Rus + Original Eng

Ответить на тему
 
Автор Сообщение

user ®

Стаж: 7 лет 7 месяцев

Сообщений: 20008

Пост Пост: #1 от 30-Авг-2013 05:10

[Цитировать]

Трудная мишень / Hard Target
Страна: США
Жанр: боевик, триллер
Год выпуска: 1993
Продолжительность: 01:39:33
Перевод: Профессиональный (многоголосый закадровый) - R9
Перевод 2: Авторский (одноголосый закадровый) - А.Гаврилов
Cубтитры: Русские, английские
Оригинальная аудиодорожка: английский
Режиссер: Джон Ву / John Woo
В ролях: Жан-Клод Ван Дамм, Чак Пфаррер, Роберт Аписа, Арнольд Вослоу, Лэнс Хенриксен, Дуглас Форсайт Рай, Майк Лейнерт, Янси Батлер, Ленор Бэнкс, Уилли С. Карпентер
Описание: Мужественный герой неутомимого Ван Дамма пытается помочь молодой красавице найти ее отца, ветерана вьетнамской войны, пропавшего без вести не на полях сражений, а в родной стране, а в результате — вынужден не на жизнь, а на смерть схватиться с бандой патологических злодеев, которые используют несчастных бездомных в качестве жертв своей жестокой и опасной игры.
Дополнительно:
Многоголоска сделана из выделенных голосов с ДВД
Дорожка А.Гаврилова получена методом наложения чистого голоса на центр декодированного оригинального DTSHD MA(англ.)...
В переводе ( концовка ) отсутствует несколько фраз вследствии разного хронометража издания
Большое спасибо "Anoobis" за предоставление данных дорожек


Сэмпл: http://yadi.sk/d/CBlncNn78SmGY
Тип релиза: BDRip 1080p
Контейнер: MKV
Видео: 1920x1040 (1.85:1), 23.976 fps, AVC, 11.3 Mbps
Аудио: Русский / DTS Audio / 5.1 / 48 kHz / 1510 kbps / 24-bit / MVO - (R9)
Аудио 2: Русский / DTS Audio / 5.1 / 48 kHz / 1510 kbps / 24-bit / AVO - А.Гаврилов
Аудио 3: English / DTS Audio / 5.1 / 48 kHz / 1510 kbps / 24-bit /
Формат субтитров: softsub (SRT)

MediaInfo

General
Unique ID : 250005304080598003336536513180932250342 (0xBC154527CB0F0178A474521F23E81AE6)
Complete name : D:\торрент\Hard Target.1993.BDRip.1080p.mkv
Format : Matroska
Format version : Version 2
File size : 11.0 GiB
Duration : 1h 39mn
Overall bit rate : 15.8 Mbps
Encoded date : UTC 2013-08-29 08:50:44
Writing application : mkvmerge v6.3.0 ('You can't stop me!') built on Jun 28 2013 20:09:41
Writing library : libebml v1.3.0 + libmatroska v1.4.0
Video
ID : 1
Format : AVC
Format/Info : Advanced Video Codec
Format profile : High@L4.1
Format settings, CABAC : Yes
Format settings, ReFrames : 4 frames
Codec ID : V_MPEG4/ISO/AVC
Duration : 1h 39mn
Bit rate : 11.3 Mbps
Width : 1 920 pixels
Height : 1 040 pixels
Display aspect ratio : 1.85:1
Frame rate mode : Constant
Frame rate : 23.976 fps
Color space : YUV
Chroma subsampling : 4:2:0
Bit depth : 8 bits
Scan type : Progressive
Bits/(Pixel*Frame) : 0.236
Stream size : 7.62 GiB (69%)
Writing library : x264 core 138 r2358 9e941d1
Encoding settings : cabac=1 / ref=4 / deblock=1:-1:-1 / analyse=0x3:0x133 / me=umh / subme=10 / psy=1 / psy_rd=1.00:0.00 / mixed_ref=1 / me_range=32 / chroma_me=1 / trellis=2 / 8x8dct=1 / cqm=0 / deadzone=21,11 / fast_pskip=0 / chroma_qp_offset=-2 / threads=6 / lookahead_threads=1 / sliced_threads=0 / nr=0 / decimate=1 / interlaced=0 / bluray_compat=0 / constrained_intra=0 / bframes=12 / b_pyramid=2 / b_adapt=2 / b_bias=0 / direct=3 / weightb=1 / open_gop=0 / weightp=2 / keyint=240 / keyint_min=24 / scenecut=40 / intra_refresh=0 / rc_lookahead=50 / rc=2pass / mbtree=0 / bitrate=11285 / ratetol=2.0 / qcomp=1.00 / qpmin=0 / qpmax=51 / qpstep=4 / cplxblur=20.0 / qblur=0.5 / vbv_maxrate=30000 / vbv_bufsize=38000 / nal_hrd=none / ip_ratio=1.40 / pb_ratio=1.30 / aq=1:1.00
Language : English
Default : Yes
Forced : No
Color primaries : BT.709
Transfer characteristics : BT.709
Matrix coefficients : BT.709
Audio #1
ID : 2
Format : DTS
Format/Info : Digital Theater Systems
Codec ID : A_DTS
Duration : 1h 39mn
Bit rate mode : Constant
Bit rate : 1 510 Kbps
Channel(s) : 6 channels
Channel positions : Front: L C R, Side: L R, LFE
Sampling rate : 48.0 KHz
Bit depth : 24 bits
Compression mode : Lossy
Stream size : 1.05 GiB (10%)
Title : MVO - R9
Language : Russian
Default : Yes
Forced : No
Audio #2
ID : 3
Format : DTS
Format/Info : Digital Theater Systems
Codec ID : A_DTS
Duration : 1h 39mn
Bit rate mode : Constant
Bit rate : 1 510 Kbps
Channel(s) : 6 channels
Channel positions : Front: L C R, Side: L R, LFE
Sampling rate : 48.0 KHz
Bit depth : 24 bits
Compression mode : Lossy
Stream size : 1.05 GiB (10%)
Title : AVO - A.Gavrilov
Language : Russian
Default : No
Forced : No
Audio #3
ID : 4
Format : DTS
Format/Info : Digital Theater Systems
Codec ID : A_DTS
Duration : 1h 39mn
Bit rate mode : Constant
Bit rate : 1 510 Kbps
Channel(s) : 6 channels
Channel positions : Front: L C R, Side: L R, LFE
Sampling rate : 48.0 KHz
Bit depth : 24 bits
Compression mode : Lossy
Stream size : 1.05 GiB (10%)
Language : English
Default : No
Forced : No
Text #1
ID : 5
Format : UTF-8
Codec ID : S_TEXT/UTF8
Codec ID/Info : UTF-8 Plain Text
Language : Russian
Default : No
Forced : No
Text #2
ID : 6
Format : UTF-8
Codec ID : S_TEXT/UTF8
Codec ID/Info : UTF-8 Plain Text
Language : English
Default : No
Forced : No
Text #3
ID : 7
Format : UTF-8
Codec ID : S_TEXT/UTF8
Codec ID/Info : UTF-8 Plain Text
Title : - SDH -
Language : English
Default : No
Forced : No
Menu
00:00:00.000 : en:00:00:00.000
00:08:22.293 : en:00:08:22.293
00:16:06.924 : en:00:16:06.924
00:26:03.645 : en:00:26:03.645
00:40:07.697 : en:00:40:07.697
00:42:53.029 : en:00:42:53.029
00:53:40.592 : en:00:53:40.592
01:05:01.481 : en:01:05:01.481
01:08:57.925 : en:01:08:57.925
01:12:25.216 : en:01:12:25.216
01:14:30.299 : en:01:14:30.299
01:18:05.973 : en:01:18:05.973
01:24:45.622 : en:01:24:45.622
01:27:23.947 : en:01:27:23.947
01:32:15.155 : en:01:32:15.155
01:34:28.413 : en:01:34:28.413

Скриншоты


Скачать

Скачать торрент!

Как скачивать? · Что такое торрент? · Рейтинг и ограничения

Сайт не распространяет и не хранит электронные версии произведений, а лишь предоставляет доступ к создаваемому пользователями каталогу ссылок на торрент-файлы, которые содержат только списки хеш-сумм

[Профиль] [ЛС]
Показать сообщения:    
Ответить на тему

Текущее время: Сегодня 12:50

Часовой пояс: GMT + 4



Вы не можете начинать темы
Вы не можете отвечать на сообщения
Вы не можете редактировать свои сообщения
Вы не можете удалять свои сообщения
Вы не можете голосовать в опросах
Вы не можете прикреплять файлы к сообщениям
Вы не можете скачивать файлы