Призрачный патруль / R.I.P.D. (Роберт Швентке / Robert Schwentke) [2013, США, Фэнтези, боевик, комедия, криминал, WEB-DLRip] Dub

Ответить на тему
 
Автор Сообщение

user ®

Стаж: 7 лет 7 месяцев

Сообщений: 20008

Пост Пост: #1 от 29-Авг-2013 16:55

[Цитировать]

Призрачный патруль / R.I.P.D.
«Они защищают наш мир от гостей с того света»
- Год выпуска: 2013
Выпущено: США / Universal Pictures, Original Film, Dark Horse Entertainment
Жанр: фэнтези, боевик, комедия, криминал
Продолжительность: 01:35:50
Перевод: Профессиональный (полное дублирование)
Субтитры: нет-Режиссер:
Роберт Швентке / Robert Schwentke-В ролях:
Джефф Бриджес (Roy), Райан Рейнольдс (Nick), Кевин Бейкон (Hayes), Мэри-Луиз Паркер (Proctor), Стефани Зостак (Julia), Джеймс Хонг (Nick's Avatar), Мариса Миллер (Roy's Avatar), Роберт Неппер (Stanley Nawlicki), Майк О’Мэлли (Elliot), Девин Рэтрей (Pulaski), Ларри Джо Кэмпбелл (Officer Murphy)-Описание:
Детективы из загробного департамента расследуют преступления по ту сторону могилы и гоняются за не в меру ретивой нечистью. Молодой коп, после гибели от руки неизвестного злоумышленника угодивший в мир иной, в обмен на помощь при расследовании собственного убийства обязуется следующие сто лет посвятить службе в R.I.P.D. и, получив в напарники брутального стрелка эпохи вестернов, выходит на борьбу с неупокоившимся злом.-[colo IMDB | КиноПоиск | Сэмпл |-Тип релиза: WEB-DLRip [R.I.P.D._BLUEBIRD]
Контейнер: AVI
Видео: 688x288 (2.39:1), 23.976 fps, XviD build 73 ~947 kbps avg, 0.20 bit/pixel
Аудио: 48 kHz, MPEG Layer 3, 2 ch, ~128.00 kbps avg |iTunes Russia|
-

Скриншоты

MediaInfo

General
Complete name                            : D:\R.I.P.D._2013_WEB_DLRip_745_by_Dalemake.avi
Format                                   : AVI
Format/Info                              : Audio Video Interleave
File size                                : 743 MiB
Duration                                 : 1h 35mn
Overall bit rate                         : 1 085 Kbps
Writing application                      : VirtualDubMod 1.5.10.3 | www.virtualdub-fr.org || (build 2550/release)
Writing library                          : VirtualDubMod build 2550/release
Video
ID                                       : 0
Format                                   : MPEG-4 Visual
Format profile                           : Advanced Simple@L5
Format settings, BVOP                    : 2
Format settings, QPel                    : No
Format settings, GMC                     : No warppoints
Format settings, Matrix                  : Custom
Codec ID                                 : XVID
Codec ID/Hint                            : XviD
Duration                                 : 1h 35mn
Bit rate                                 : 947 Kbps
Width                                    : 688 pixels
Height                                   : 288 pixels
Display aspect ratio                     : 2.40:1
Frame rate                               : 23.976 fps
Color space                              : YUV
Chroma subsampling                       : 4:2:0
Bit depth                                : 8 bits
Scan type                                : Progressive
Compression mode                         : Lossy
Bits/(Pixel*Frame)                       : 0.199
Stream size                              : 649 MiB (87%)
Writing library                          : XviD 73
Audio
ID                                       : 1
Format                                   : MPEG Audio
Format version                           : Version 1
Format profile                           : Layer 3
Codec ID                                 : 55
Codec ID/Hint                            : MP3
Duration                                 : 1h 35mn
Bit rate mode                            : Constant
Bit rate                                 : 128 Kbps
Channel(s)                               : 2 channels
Sampling rate                            : 48.0 KHz
Compression mode                         : Lossy
Stream size                              : 87.7 MiB (12%)
Alignment                                : Aligned on interleaves
Interleave, duration                     : 42 ms (1.00 video frame)
Interleave, preload duration             : 504 ms
Writing library                          : LAME3.99r
Encoding settings                        : -m s -V 4 -q 2 -lowpass 17 -b 128
-
Скачать

Скачать торрент!

Как скачивать? · Что такое торрент? · Рейтинг и ограничения

Сайт не распространяет и не хранит электронные версии произведений, а лишь предоставляет доступ к создаваемому пользователями каталогу ссылок на торрент-файлы, которые содержат только списки хеш-сумм

[Профиль] [ЛС]
Показать сообщения:    
Ответить на тему

Текущее время: Сегодня 18:21

Часовой пояс: GMT + 4



Вы не можете начинать темы
Вы не можете отвечать на сообщения
Вы не можете редактировать свои сообщения
Вы не можете удалять свои сообщения
Вы не можете голосовать в опросах
Вы не можете прикреплять файлы к сообщениям
Вы не можете скачивать файлы