Призрачный патруль / R.I.P.D. (Роберт Швентке / Robert Schwentke) [2013, США, фэнтези, боевик, комедия, криминал, WEB-DLRip-AVC] Dub (iTunes Russia)

Ответить на тему
 
Автор Сообщение

user ®

Стаж: 7 лет 7 месяцев

Сообщений: 20008

Пост Пост: #1 от 29-Авг-2013 16:55

[Цитировать]

Призрачный патруль / R.I.P.D.«Они защищают наш мир от гостей с того света»- Страна: США
Жанр: фэнтези, боевик, комедия, криминал
Год выпуска: 2013
Продолжительность: 01:35:51-Перевод: Профессиональный (дублированный) |Цифровая лицензия iTunes|
Cубтитры: нет
Оригинальная аудиодорожка: нет-Режиссер: Роберт Швентке / Robert Schwentke-В ролях: Джефф Бриджес, Райан Рейнольдс, Кевин Бейкон, Мэри-Луиз Паркер, Стефани Зостак, Джеймс Хонг, Мариса Миллер, Роберт Неппер, Майк О’Мэлли, Девин Рэтрей и др.-Описание: Детективы из загробного департамента расследуют преступления по ту сторону могилы и гоняются за не в меру ретивой нечистью. Молодой коп, после гибели от руки неизвестного злоумышленника угодивший в мир иной, в обмен на помощь при расследовании собственного убийства обязуется следующие сто лет посвятить службе в R.I.P.D. и, получив в напарники брутального стрелка эпохи вестернов, выходит на борьбу с неупокоившимся злом.-Доп. информация: СЭМПЛ
Автор рипа: L-Качество видео: WEB-DLRip-AVC R.I.P.D.720p.WEB-DL.Rus.HDCLUB
Формат видео: MKV
Видео: AVC / High@L4.1 / 1030 x 436 / 1 799 Kbps / 2.35:1
Аудио: 48 kHz, AC3 Dolby Digital, 3/2 (L,C,R,l,r) + LFE ch, ~384 kbps DUB |iTunes Russia|

MediaInfo

Log_x264

---[Information] [29.08.2013 6:34:54] x264 [info]: frame I:1336 Avg QP:16.76 size: 53819 PSNR Mean Y:47.60 U:52.03 V:51.60 Avg:48.59 Global:47.91
---[Information] [29.08.2013 6:34:54] x264 [info]: frame P:39156 Avg QP:19.46 size: 16765 PSNR Mean Y:45.80 U:50.54 V:50.18 Avg:46.83 Global:45.95
---[Information] [29.08.2013 6:34:54] x264 [info]: frame B:97388 Avg QP:21.63 size: 5796 PSNR Mean Y:45.33 U:50.35 V:49.90 Avg:46.39 Global:45.58
Общее
Уникальный идентификатор : 215493307777235853984594680279195981866 (0xA21E805D79BC13898EC2910612E8182A)
Полное имя : Prizrachniy.Patrul.2013.Bluray.x264.ac3.rus.by.L.mkv
Формат : Matroska
Версия формата : Version 2
Размер файла : 1,46 Гбайт
Продолжительность : 1 ч. 35 м.
Общий поток : 2184 Кбит/сек
Название фильма : Призрачный патруль / R.I.P.D. [2013 г.] | Рип от L
Дата кодирования : UTC 2013-08-29 03:48:17
Программа кодирования : mkvmerge v3.2.0 ('Beginnings') built on Feb 12 2010 16:46:17
Библиотека кодирования : libebml v0.7.9 + libmatroska v0.8.1
Видео
Идентификатор : 1
Формат : AVC
Формат/Информация : Advanced Video Codec
Профиль формата : High@L4.1
Параметр CABAC формата : Да
Параметр ReFrames формата : 11 кадров
Идентификатор кодека : V_MPEG4/ISO/AVC
Продолжительность : 1 ч. 35 м.
Битрейт : 1799 Кбит/сек
Ширина : 1030 пикселей
Высота : 436 пикселей
Соотношение сторон : 2,35:1
Режим частоты кадров : Постоянный
Частота кадров : 23,976 кадра/сек
Цветовое пространство : YUV
Субдискретизация насыщенности : 4:2:0
Битовая глубина : 8 бит
Тип развёртки : Прогрессивная
Бит/(Пиксели*Кадры) : 0.167
Размер потока : 1,18 Гбайт (80%)
Библиотека кодирования : x264 core 133 r2334 a3ac64b
Настройки программы : cabac=1 / ref=11 / deblock=1:-2:-1 / analyse=0x3:0x133 / me=umh / subme=11 / psy=1 / psy_rd=1.10:0.10 / mixed_ref=1 / me_range=32 / chroma_me=1 / trellis=2 / 8x8dct=1 / cqm=0 / deadzone=21,11 / fast_pskip=0 / chroma_qp_offset=-4 / threads=6 / lookahead_threads=1 / sliced_threads=0 / nr=0 / decimate=1 / interlaced=0 / bluray_compat=0 / constrained_intra=0 / bframes=7 / b_pyramid=2 / b_adapt=2 / b_bias=0 / direct=3 / weightb=1 / open_gop=0 / weightp=2 / keyint=230 / keyint_min=21 / scenecut=40 / intra_refresh=0 / rc_lookahead=0 / rc=2pass / mbtree=0 / bitrate=1799 / ratetol=1.0 / qcomp=0.70 / qpmin=0 / qpmax=69 / qpstep=4 / cplxblur=20.0 / qblur=0.5 / vbv_maxrate=50000 / vbv_bufsize=62500 / nal_hrd=none / ip_ratio=1.35 / pb_ratio=1.25 / aq=2:0.90
Язык : English
Default : Нет
Forced : Нет
Аудио
Идентификатор : 2
Формат : AC-3
Формат/Информация : Audio Coding 3
Расширение режима : CM (complete main)
Параметр Endianness формата : Big
Идентификатор кодека : A_AC3
Продолжительность : 1 ч. 35 м.
Вид битрейта : Постоянный
Битрейт : 384 Кбит/сек
Каналы : 6 каналов
Расположение каналов : Front: L C R, Side: L R, LFE
Частота : 48,0 КГц
Битовая глубина : 16 бит
Метод сжатия : С потерями
Размер потока : 263 Мбайт (18%)
Заголовок : Дубляж, AC3 5.1 @ 384 kbps
Язык : Russian
Default : Да
Forced : Нет

Скриншот c названием фильма

Скриншоты

Скачать

Скачать торрент!

Как скачивать? · Что такое торрент? · Рейтинг и ограничения

Сайт не распространяет и не хранит электронные версии произведений, а лишь предоставляет доступ к создаваемому пользователями каталогу ссылок на торрент-файлы, которые содержат только списки хеш-сумм

[Профиль] [ЛС]
Показать сообщения:    
Ответить на тему

Текущее время: Сегодня 20:38

Часовой пояс: GMT + 4



Вы не можете начинать темы
Вы не можете отвечать на сообщения
Вы не можете редактировать свои сообщения
Вы не можете удалять свои сообщения
Вы не можете голосовать в опросах
Вы не можете прикреплять файлы к сообщениям
Вы не можете скачивать файлы